アットウィキロゴ
Catapulted Arch
BEMANI Sound Team "person09"

ADVANCED

Level: 7
BPM: 184
Notes: 505

1
口口口口 |----|
口口口口 |----|
口口口口 |----|
口口口口 |----|
2
口口口口 |①-②-|
口⑤⑥口 |--③-|
口③④口 |④---|
口①②口 |⑤-⑥-|
3
口口口口 |--①-|
口口口口 |②---|
口口口口 |----|
口①②口 |----|
4
口口口口 |①-②-|
口①②口 |--③-|
口③④口 |④---|
口⑤⑥口 |⑤-⑥-|
5
口口口口 |--①-|
口①②口 |②---|
口口口口 |----|
口口口口 |----|
6
口⑤⑥口 |①-②-|
口③④口 |--③-|
口①②口 |④---|
口口口口 |⑤-⑥-|
7
口口口口 |--①-|
口口口口 |②---|
口①②口 |----|
口口口口 |----|
8
口①②口 |①-②-|
口③④口 |--③-|
口⑤⑥口 |④---|
口口口口 |⑤-⑥-|
9
口口口口 |--①-|
口口口口 |②---|
③口口④ |③---|
口①②口 |④---|
10
③③②② |①---|
①①④④ |②---|
口口口口 |③---|
口口口口 |④---|
11
口口②② |①---|
①①口口 |②---|
口口口口 |----|
口口口口 |----|
12
②②③③ |①---|
④④①① |②---|
口口口口 |③---|
口口口口 |④---|
13
②②口口 |①---|
口口①① |②---|
口口口口 |----|
口口口口 |----|
14
②④③① |①---|
②④③① |②---|
口口口口 |③---|
口口口口 |④---|
15
②口口① |①---|
②口口① |②---|
口⑤口口 |--③-|
口③④口 |④-⑤-|
16
口口口口 |①---|
②口口口 |--②-|
②口①口 |----|
口③③口 |③---|
17
口②②口 |--①-|
口②②① |----|
口口口① |②---|
口口口口 |----|
18
口口口口 |----|
口口口口 |----|
口口口口 |----|
口口口口 |----|
19
⑥口口口 |①---|
④口口⑤ |--②-|
②口口③ |③-④-|
①①①① |⑤-⑥-|
20
口②①口 |--①-|
口口③口 |②-③-|
④④口口 |--④-|
口口口口 |----|
21
②口口口 |①---|
口口口口 |--②-|
口口①①
口口口口

口口口口
口口口口
口③④口 |--③-|
口口口口 |--④-|
22
②口口① |--①-|
口口③口 |--②-|
口④口口 |--③-|
口口⑤口 |④-⑤-|
23
口口口口 |①-②-|
③口⑥④ |③-④-|
①口口② |--⑤-|
口⑤口口 |--⑥-|
24
①口口② |--①-|
③口口④ |②-③-|
⑤口口⑥ |④-⑤-|
⑦口口口 |⑥-⑦-|
25
④④③③ |①---|
口口口口 |②---|
口②②口 |③---|
口口口① |④---|
26
口口口口 |①---|
②①①② |②---|
口③③口 |③---|
口口口口 |----|
27
口口③① |①---|
④②口⑤ |②-③-|
口口口口 |--④-|
口口口口 |--⑤-|
28
口①②口 |--①-|
口③④口 |②-③-|
口⑤⑥口 |④-⑤-|
口⑦口口 |⑥-⑦-|
29
口口③口 |①---|
④②口⑤ |②-③-|
口口口口 |--④-|
口口①口 |--⑤-|
30
口⑦口口 |--①-|
口⑤⑥口 |②-③-|
口③④口 |④-⑤-|
口①②口 |⑥-⑦-|
31
口口①口 |①---|
口口口口 |②-③-|
③口口⑤ |--④-|
口②④口 |⑤---|
32
口口口口 |①-②-|
②口口口 |--③-|
口①③口
口口口口

口口口口
口口⑤④
⑥⑦口口 |④-⑤-|
口口口口 |⑥-⑦-|
33
口口口口 |①-②-|
口口口口 |③-④-|
⑦⑧⑥⑤ |⑤-⑥-|
③④②① |⑦-⑧-|
34
口⑤⑤口 |①-②-|
③④②① |③-④-|
口⑥⑥口 |⑤---|
口口口口 |⑥---|
35
①③口口 |①---|
⑤口②④ |②-③-|
口口口口 |--④-|
口口口口 |--⑤-|
36
口②①口 |--①-|
口④③口 |②-③-|
口⑥⑤口 |④-⑤-|
口口⑦口 |⑥-⑦-|
37
口③口口 |①---|
⑤口②④ |②-③-|
口口口口 |--④-|
口①口口 |--⑤-|
38
口口⑦口 |--①-|
口⑥⑤口 |②-③-|
口④③口 |④-⑤-|
口②①口 |⑥-⑦-|
39
口①口口 |①---|
口口口口 |②-③-|
⑤口口③ |--④-|
口④②口 |⑤---|
40
口口口口 |①-②-|
口口口② |--③-|
口③①口
口口口口

口口口口
④⑤口口
口口⑦⑥ |④-⑤-|
口口口口 |⑥-⑦-|
41
口口口③ |①---|
口口口② |--②-|
口④④口 |③---|
口①①口 |④---|
42
②口口口 |--①-|
①③③口 |②---|
口④④口 |③---|
口口口口 |④---|
43
口①①② |①---|
口口口② |--②-|
口口口口 |----|
口口③③ |③---|
44
②口口口 |----|
②口口口 |----|
口口口口 |①---|
①①口口 |--②-|
45
口①①口 |----|
口口口口 |①---|
口口口口 |----|
口口口口 |----|
46
口口口口 |①---|
②口①③ |--②-|
②口①③ |----|
口口口口 |③---|
47
②口口② |--①-|
口①口口 |----|
口①口口 |②---|
③口口③ |③---|
48
②①①口 |①---|
②口口口 |--②-|
口口口口 |----|
③③口口 |③---|
49
口口口② |----|
口口口② |----|
口口口口 |①---|
口口①① |--②-|
50
口①①口 |----|
口口口口 |①---|
口口口口 |----|
口口口口 |----|
51
口口口口 |①---|
③①口② |--②-|
③①口② |----|
口口口口 |③---|
52
口口口口 |--①-|
口③①口 |----|
③②①口 |②---|
口口②口 |--③-|
53
口口口口 |----|
口口①口 |①---|
口口②① |--②-|
口②口口 |----|
54
①①①① |①---|
口口口口 |----|
口口口口 |----|
口口口口 |----|
55
口口口口 |----|
口口口① |--①-|
②口口③ |②-③-|
④口口⑤ |④-⑤-|
56
口⑤⑥口 |①---|
④①①口 |--②-|
③①①口 |③-④-|
口②口口 |⑤-⑥-|
57
口口口口 |--①-|
⑦口口口 |②-③-|
⑤①②⑥ |④-⑤-|
口③④口 |⑥-⑦-|
58
口口口口 |①-②-|
⑧⑦②① |③-④-|
口⑥③口 |⑤-⑥-|
口⑤④口 |⑦-⑧-|
59
口②①口 |----|
口④③口 |①-②-|
口⑥⑤口 |③-④-|
口口口口 |⑤-⑥-|
60
口口口口 |①-②-|
⑧口口① |③-④-|
⑦口口② |⑤-⑥-|
⑥⑤④③ |⑦-⑧-|
61
口⑥⑤口 |--①-|
口④③口 |②-③-|
口②①口 |④-⑤-|
口口口口 |⑥---|
62
③口口① |①---|
③口口① |--②-|
口口口口 |----|
口口②② |③---|
63
口口口口 |--①-|
③口口② |----|
③口口② |②---|
①①口口 |③---|
64
口⑥⑤口 |①---|
口①①④ |--②-|
口①①③ |③-④-|
口口②口 |⑤-⑥-|
65
口口口口 |--①-|
口口口⑦ |②-③-|
⑥②①⑤ |④-⑤-|
口④③口 |⑥-⑦-|
66
口口口口 |①-②-|
①②⑦⑧ |③-④-|
口③⑥口 |⑤-⑥-|
口④⑤口 |⑦-⑧-|
67
口①②口 |----|
口③④口 |①-②-|
口⑤⑥口 |③-④-|
口口口口 |⑤-⑥-|
68
口⑧⑦口 |①-②-|
①口口⑥ |③-④-|
②口口⑤ |⑤-⑥-|
口③④口 |⑦-⑧-|
69
口口口口 |--①-|
口口口⑦ |②-③-|
③②①⑥ |④-⑤-|
口④⑤口 |⑥-⑦-|
70
①⑥⑧③ |①-②-|
⑤②④⑦ |③-④-|
口口口口 |⑤-⑥-|
口口口口 |⑦-⑧-|
71
口⑦口口 |--①-|
⑦②④口 |②-③-|
⑤①③⑥ |④-⑤-|
口⑤⑥口 |⑥-⑦-|
72
口口①口 |①---|
口⑤④① |--②-|
口③②口 |③---|
口口口口 |④-⑤-|
73
口口口口 |--①-|
口口口口 |②---|
口口口口 |----|
口②①口 |----|
74
口口口口 |①-②-|
口②①口 |--③-|
口④③口 |④---|
口⑥⑤口 |⑤-⑥-|
75
口口口口 |--①-|
口②①口 |②---|
口口口口 |----|
口口口口 |----|
76
口⑥⑤口 |①-②-|
口④③口 |--③-|
口②①口 |④---|
口口口口 |⑤-⑥-|
77
口口口口 |--①-|
口口口口 |②---|
口②①口 |----|
口口口口 |----|
78
口②①口 |①-②-|
口④③口 |--③-|
口⑥⑤口 |④---|
口口口口 |⑤-⑥-|
79
口口口口 |--①-|
口口口口 |②---|
④口口③ |③---|
口②①口 |④---|
80
②②③③ |①---|
④④①① |②---|
口口口口 |③---|
口口口口 |④---|
81
②②口口 |①---|
口口①① |②---|
口口口口 |----|
口口口口 |----|
82
③③②② |①---|
①①④④ |②---|
口口口口 |③---|
口口口口 |④---|
83
口口②② |①---|
①①口口 |②---|
口口口口 |----|
口口口口 |----|
84
①③④② |①---|
①③④② |②---|
口口口口 |③---|
口口口口 |④---|
85
①口口② |①---|
①口口② |②---|
口口⑤口 |--③-|
口④③口 |④-⑤-|
86
口口口口 |①---|
口口口② |--(176)②-|
口①口② |----|
口③③口 |(168)③---|
87
口②②口 |--(160)①-|
①②②口 |----|
①口口口 |(144)②---|
口口③口 |③---|
88
③口口④ |①---|
口口口① |②---|
口②口口 |③-(136.0004)--|
口口口口 |(128)④-(120)--|
89
口①口口 |-①----|
①口口口 |----|
口口口口 |----|
口口口口 |----|

accuracy: 100%
最終更新:2024年08月11日 08:05