アットウィキロゴ
Catapulted Arch
BEMANI Sound Team "person09"

EXTREME

Level: 10.3
BPM: 184
Notes: 927

1
⑨口口⑩ |(184)----|
⑦⑤⑥⑧ |--①②|
③①②④ |③④⑤⑥|
口口口口 |⑦⑧⑨⑩|
2
⑥⑤口⑥ |①-②-|
口口口口 |--③-|
④口③④ |④---|
②①口② |⑤-⑥-|
3
口口口口 |--①-|
口③④口 |②-③④|
口口口口
②口①②

口口口口
⑤口口⑥
⑨⑦⑧⑩ |⑤⑥⑦⑧|
口⑪⑫口 |⑨⑩⑪⑫|
4
②①口② |①-②-|
④口③④ |--③-|
口口口口 |④---|
⑥⑤口⑥ |⑤-⑥-|
5
②口①② |--①-|
口口口口 |②-③④|
口③④口
口口口口

口⑪⑫口
⑨⑦⑧⑩
⑤口口⑥ |⑤⑥⑦⑧|
口口口口 |⑨⑩⑪⑫|
6
⑤⑥⑥口 |①-②-|
口口口口 |--③-|
口④④③ |④---|
①②②口 |⑤-⑥-|
7
⑪口口⑫ |--①-|
⑦⑨⑩⑧ |②-③④|
③⑤⑥④ |⑤⑥⑦⑧|
口②②① |⑨⑩⑪⑫|
8
⑤口⑥⑥ |①-②-|
口口口口 |--③-|
④④口③ |④---|
①口②② |⑤-⑥-|
9
口③口口 |--①-|
③口口口 |②---|
口口口④ |③---|
②②④① |④---|
10
⑥⑭⑤口 |①②③④|
⑦⑩⑬④ |⑤-⑥⑦|
①⑪③⑫ |⑧⑨⑩⑪|
口②⑨⑧ |⑫⑬⑭-|
11
⑧口口① |①②③④|
口口口② |⑤⑥⑦-|
③口⑤口 |⑧---|
④⑥⑦⑨ |⑨---|
12
⑬⑭④③ |①②③④|
①②⑧⑦ |⑤⑥⑦⑧|
⑤⑥⑫⑪ |⑨⑩⑪⑫|
⑨⑩⑯⑮ |⑬⑭⑮⑯|
13
口口④③ |①②③④|
①②⑧⑦ |⑤⑥⑦⑧|
⑤⑥口口 |⑨---|
⑨口口⑩ |⑩---|
14
①②③④ |①②③④|
⑤⑥⑦⑧ |⑤⑥⑦⑧|
⑨⑩⑪⑫ |⑨⑩⑪⑫|
⑬⑭⑮⑯ |⑬⑭⑮⑯|
15
①②③④ |①②③④|
⑤⑥⑦口 |⑤⑥⑦-|
⑩口口⑨ |--⑧-|
⑧口口口 |⑨-⑩-|
16
②口②① |①---|
口口口口 |--②-|
口②①③ |----|
③①③口 |③---|
17
口①口口 |--①-|
口口口口 |----|
口口①口
口①口口

②口②口
口②口②
口口口口 |②---|
③⑥⑤④ |③④⑤⑥|
18
口口口口 |①②③④|
⑤⑧⑦⑥ |⑤⑥⑦⑧|
②③④①
口口口口

⑩⑪⑫⑨
口口口口
⑮口口⑯ |⑨⑩⑪⑫|
⑬口口⑭ |⑬⑭⑮⑯|
19
口⑦口口 |①---|
②⑤口⑥ |--②③|
口③④口 |④-⑤-|
口①①口 |⑥-⑦-|
20
口口②口 |--①-|
口⑤④口 |②-③-|
口③⑥① |--④⑤|
口⑦⑧口 |⑥⑦⑧-|
21
⑥口⑧口 |①②③④|
②⑦口① |⑤-⑥-|
⑥口⑧③ |--⑦-|
④⑦口⑤ |--⑧-|
22
⑥②口③ |--①-|
⑦⑤④① |--②-|
②⑧口口 |--③④|
口口①口 |⑤⑥⑦⑧|
23
口⑥口口 |①-②-|
⑥口⑤口 |③-④-|
④口①⑤ |--⑤-|
②④③口 |--⑥-|
24
②⑫①口 |--①②|
⑩④⑨③ |③④⑤⑥|
⑥口⑤⑪ |⑦⑧⑨⑩|
口⑧口⑦ |⑪-⑫-|
25
②④口① |①---|
口口③口 |②---|
④②口口 |③---|
口口口③ |④---|
26
⑧⑨口口 |①---|
②口③① |②---|
⑤口⑦⑥ |③-④⑤|
④②①③ |⑥⑦⑧⑨|
27
口⑤③① |①---|
⑤③口① |②-③-|
口②④口 |--④-|
口口②④ |--⑤-|
28
②⑫口① |--①②|
口④③⑪ |③④⑤⑥|
⑥⑩⑨⑤ |⑦⑧⑨⑩|
口⑧⑦口 |⑪-⑫-|
29
口口⑤口 |①---|
口②③⑤ |②-③-|
口④口③ |--④-|
④口口① |--⑤-|
30
①口⑫② |--①②|
⑪③④口 |③④⑤⑥|
⑤⑨⑩⑥ |⑦⑧⑨⑩|
口⑦⑧口 |⑪-⑫-|
31
③③口口 |①---|
⑤⑤口② |②-③-|
口口口④ |--④-|
①口口① |⑤---|
32
口口②② |①-②-|
口口口口 |--③-|
①口口口
③口口口

⑤口口口
口⑥④④
⑨口口⑦ |④-⑤⑥|
口⑩⑧口 |⑦⑧⑨⑩|
33
⑧口口⑤ |①-②-|
④⑥⑦口 |③-④-|
口②③口 |⑤-⑥-|
口口口① |⑦-⑧-|
34
口②口⑤ |①-②-|
口⑤口① |③-④-|
③⑦口⑥ |⑤-⑥-|
口口④⑦ |⑦---|
35
①③⑤口 |①---|
①口③⑤ |②-③-|
口④②口 |--④-|
④②口口 |--⑤-|
36
①口⑫② |--①②|
⑪③④口 |③④⑤⑥|
⑤⑨⑩⑥ |⑦⑧⑨⑩|
口⑦⑧口 |⑪-⑫-|
37
口⑤口口 |①---|
⑤③②口 |②-③-|
③口④口 |--④-|
①口口④ |--⑤-|
38
②⑫口① |--①②|
口④③⑪ |③④⑤⑥|
⑥⑩⑨⑤ |⑦⑧⑨⑩|
口⑧⑦口 |⑪-⑫-|
39
口口③③ |①---|
②口⑤⑤ |②-③-|
④口口口 |--④-|
①口口① |⑤---|
40
②②④⑤ |①-②-|
口④⑤口 |--③-|
口⑥⑦① |④-⑤-|
⑥⑦口③ |⑥-⑦-|
41
②⑧⑨⑦ |①-②③|
③⑥⑩① |④-⑤-|
④口口口 |⑥-⑦-|
口口⑤口 |⑧-⑨⑩|
42
口口口口 |①-②-|
口④口口 |③-④-|
口口①③
②口口口

口⑥⑦⑤
⑧口口⑨
口⑩⑪口 |⑤-⑥⑦|
口口口口 |⑧⑨⑩⑪|
43
①③口② |①---|
口口口口 |--②-|
①口③② |----|
口口口口 |③---|
44
⑩口口⑨ |①②③④|
⑦⑧⑥⑤ |⑤⑥⑦⑧|
⑩口口⑨ |⑨---|
③④②① |--⑩-|
45
口口①口 |----|
①口③② |①---|
⑧⑨⑦⑥ |②③④⑤|
④⑤口口 |⑥⑦⑧⑨|
46
口③②① |①---|
口③②口 |--②-|
口③口口 |----|
口口口口 |③---|
47
①③②口 |--①-|
①口口口 |----|
①③②口 |②---|
①②③口 |③---|
48
②口③① |①---|
口口口口 |--②-|
②③口① |----|
口口口口 |③---|
49
⑨口口⑩ |①②③④|
⑤⑥⑧⑦ |⑤⑥⑦⑧|
⑨口口⑩ |⑨---|
①②④③ |--⑩-|
50
口①口口 |----|
②③口① |①---|
⑥⑦⑨⑧ |②③④⑤|
口口⑤④ |⑥⑦⑧⑨|
51
①②③口 |①---|
口②③口 |--②-|
口口③口 |----|
口口口口 |③---|
52
②③口① |--①-|
口③口① |----|
②口口① |②---|
②③口① |--③-|
53
口口口口 |----|
②口②② |①---|
口①①① |--②-|
口口口口 |----|
54
口口①① |①---|
口①口口 |----|
①口口口 |----|
口口口口 |----|
55
口口口口 |----|
⑤口口口 |--①②|
口①②口 |③-④-|
⑥④口③ |⑤-⑥-|
56
②口口口 |①---|
口①④口 |②-③④|
①③口①
口口①口

口口⑦⑤
口口口口
口口⑥⑧ |⑤-⑥-|
⑦口口口 |⑦-⑧-|
57
③口口⑤ |--①②|
⑥④⑪口 |③-④-|
⑦⑩⑨口 |⑤-⑥⑦|
⑧①②③ |⑧⑨⑩⑪|
58
⑧③④④ |①-②-|
⑤③⑧② |③-④-|
⑤⑦⑥② |⑤-⑥-|
⑦①①⑥ |⑦-⑧-|
59
口⑤⑨① |----|
口⑥口② |①②③④|
口⑦口③ |⑤⑥⑦⑧|
⑩⑧口④ |⑨-⑩-|
60
口口口口 |①-②③|
①口②口 |④-⑤-|
⑤口③口
口口④口

⑦⑨口⑧
⑨口口口
口口口⑥ |⑥-⑦-|
口口口口 |⑧-⑨-|
61
口口口口 |--①-|
⑥⑤⑥⑤ |②-③-|
③④③④ |④-⑤-|
②①②① |⑥---|
62
①③①① |①---|
口④⑤⑤ |②-③-|
③③②口 |--④-|
口口口⑤ |⑤---|
63
⑥口③口 |①-②-|
②④口⑧ |--③④|
⑦口⑤口 |⑤-⑥-|
②②①口 |⑦-⑧-|
64
⑤⑦口② |①---|
口④口口 |②-③④|
⑧⑥③口 |⑤-⑥-|
口①①⑦ |⑦-⑧-|
65
⑤口口③ |--①②|
口⑪④⑥ |③-④-|
口⑨⑩⑦ |⑤-⑥⑦|
③②①⑧ |⑧⑨⑩⑪|
66
④④③⑧ |①-②-|
②⑧③⑤ |③-④-|
②⑥⑦⑤ |⑤-⑥-|
⑥①①⑦ |⑦-⑧-|
67
①口口⑦ |----|
②口⑥口 |①②③④|
③口口⑧ |⑤-⑥-|
④口⑤口 |⑦-⑧-|
68
⑨①①⑨ |①-②③|
②⑥⑥⑦ |④-⑤-|
③④④口 |⑥-⑦-|
口⑧⑧⑤ |⑧-⑨-|
69
⑪口口口 |--①②|
⑤⑥⑦⑧ |③④⑤⑥|
①②③④ |⑦⑧⑨-|
口⑨口⑩ |⑩-⑪-|
70
⑨⑨①① |①-②③|
⑨⑧口⑦ |④-⑤-|
口④③② |⑥-⑦-|
⑥口⑤口 |⑧-⑨-|
71
口口①口 |--①②|
⑩⑧②⑦ |③④⑤⑥|
口口③⑥ |⑦-⑧-|
口⑨④⑤ |⑨-⑩-|
72
口口口① |①---|
口口①口 |--②-|
口②口口
①口口口

⑤口④⑤
口口口口
③口口③ |③---|
口口口口 |④-⑤-|
73
口口口口 |--①-|
口④③口 |②-③④|
口口口口
②①口②

口口口口
⑥口口⑤
⑩⑧⑦⑨ |⑤⑥⑦⑧|
口⑫⑪口 |⑨⑩⑪⑫|
74
②口①② |①-②-|
④③口④ |--③-|
口口口口 |④---|
⑥口⑤⑥ |⑤-⑥-|
75
②①口② |--①-|
口口口口 |②-③④|
口④③口
口口口口

口⑫⑪口
⑩⑧⑦⑨
⑥口口⑤ |⑤⑥⑦⑧|
口口口口 |⑨⑩⑪⑫|
76
口⑥⑥⑤ |①-②-|
口口口口 |--③-|
③④④口 |④---|
口②②① |⑤-⑥-|
77
⑫口口⑪ |--①-|
⑧⑩⑨⑦ |②-③④|
④⑥⑤③ |⑤⑥⑦⑧|
①②②口 |⑨⑩⑪⑫|
78
⑥⑥口⑤ |①-②-|
口口口口 |--③-|
③口④④ |④---|
②②口① |⑤-⑥-|
79
口口③口 |--①-|
口口口③ |②---|
④口口口 |③---|
①④②② |④---|
80
口⑤⑭⑥ |①②③④|
④⑬⑩⑦ |⑤-⑥⑦|
⑫③⑪① |⑧⑨⑩⑪|
⑧⑨②口 |⑫⑬⑭-|
81
①口口⑧ |①②③④|
②口口口 |⑤⑥⑦-|
口⑤口③ |⑧---|
⑨⑦⑥④ |⑨---|
82
③④⑭⑬ |①②③④|
⑦⑧②① |⑤⑥⑦⑧|
⑪⑫⑥⑤ |⑨⑩⑪⑫|
⑮⑯⑩⑨ |⑬⑭⑮⑯|
83
③④口口 |①②③④|
⑦⑧②① |⑤⑥⑦⑧|
口口⑥⑤ |⑨---|
⑩口口⑨ |⑩---|
84
④③②① |①②③④|
⑧⑦⑥⑤ |⑤⑥⑦⑧|
⑫⑪⑩⑨ |⑨⑩⑪⑫|
⑯⑮⑭⑬ |⑬⑭⑮⑯|
85
④③②① |①②③④|
口⑦⑥⑤ |⑤⑥⑦-|
⑨口口⑩ |--⑧-|
口口口⑧ |⑨-⑩-|
86
①②口② |①---|
口口口口 |--(176)②-|
③①②口 |----|
口③①③ |(168)③---|
87
口口①口 |--(160)①-|
口口口口 |----|
口①口口
口口①口

口②口②
②口②口
口口口口 |(144)②---|
④⑤⑥③ |③④⑤⑥|
88
口口口口 |①②③④|
⑥⑦⑧⑤ |⑤⑥⑦⑧|
①④③②
口口口口

⑨⑫⑪⑩
⑯口口口
口口口⑮ |⑨⑩(136.0004)⑪⑫|
口⑭⑬口 |(128)⑬--⑭--(120)⑮---⑯-|
89
口口口口 |-①----|
口口口① |----|
口口①口 |----|
口口口口 |----|

accuracy: 100%
最終更新:2024年08月11日 08:05