アットウィキロゴ
Super GERO GE-RO
S-C-U

EXTREME

Level: 10.6
BPM: 188
Notes(hold): 767(13)

1
③口口口 |①-②-|
口⑤口口 |--③-|
④②①口 |--④-|
口口口口 |--⑤-|
2
口口②口 |--①-|
口口口口 |--②-|
口口口口 |--③-|
口①④③ |④---|
3
口口口③ |①-②-|
口口⑤口 |--③-|
口①②④ |--④-|
口口口口 |--⑤-|
4
口口口口 |----|
①口口① |----|
口口口口 |----|
口口口口 |①---|
5
⑦口口② |①-②③|
口⑥③口 |④-⑤-|
口口⑤④ |⑥-⑦-|
口口口①

口口口口
口口口口
口口口口
⑧⑨⑩⑪ |⑧⑨⑩⑪|
6
口③口⑦ |①-②-|
④口②⑧ |③-④-|
口①⑤⑨ |⑤-⑥-|
口⑥口⑩ |⑦⑧⑨⑩|
7
②口口⑦ |①-②③|
口③⑥口 |④-⑤-|
④⑤口口 |⑥-⑦-|
①口口口

口口口口
口口口口
口口口口
⑪⑩⑨⑧ |⑧⑨⑩⑪|
8
⑦口③口 |①-②-|
⑧②口④ |③-④-|
⑨⑤①口 |⑤-⑥-|
⑩口⑥口 |⑦⑧⑨⑩|
9
⑦口口② |①-②③|
口⑥③口 |④-⑤-|
口口⑤④ |⑥-⑦-|
口口口①

口口口口
口口口口
口口口口
⑧⑨⑩⑪ |⑧⑨⑩⑪|
10
口③口⑦ |①-②-|
④口②⑧ |③-④-|
口①⑤⑨ |⑤-⑥-|
口⑥口⑩ |⑦⑧⑨⑩|
11
②口口⑦ |①-②③|
口③⑥口 |④-⑤-|
④⑤口口 |⑥-⑦-|
①口口口

口口口口
口口口口
口口口口
⑪⑩⑨⑧ |⑧⑨⑩⑪|
12
③①②④ |①---②-|
口⑥⑤① |--③---|
②④口③ |④---⑤-|
⑥口口⑤ |--⑥---|
13
口口①③ |①-②-|
口口口⑤ |--③-|
口口②口 |--④-|
口口④口 |--⑤-|
14
口④口口 |--①-|
口口③口 |②-③-|
口口口② |--④-|
口⑤口① |--⑤-|
15
口口①③ |①-②-|
口口口⑤ |--③-|
口口②口 |--④-|
口口④口 |--⑤-|
16
口口④口 |--①-|
口口③⑤ |②-③-|
口口⑥② |--④-|
口口口① |⑤-⑥-|
17
口口口② |①--②|
口②口口 |--③-|
口①口口
口③③①

口口④口
口口口口
口口⑤口 |--④-|
口口口⑥ |⑤-⑥-|
18
口①④口 |①--②|
口③③① |--③-|
口口⑤② |--④-|
口②口⑥ |⑤-⑥-|
19
①口⑤① |①---|
口②口④ |②-③-|
口口口口 |--④-|
③口口口 |--⑤-|
20
口口口口 |--①-|
口口口口 |②---|
口口口① |----|
口口口② |----|
21
①口①④ |①-②-|
③口口⑧ |③-④-|
⑤口②口 |⑤-⑥-|
⑦口⑥口 |⑦-⑧-|
22
①⑥口口 |①-②-|
③口④口 |③-④-|
⑤口口③ |⑤-⑥-|
⑦⑧口② |⑦-⑧-|
23
①口①④ |①-②-|
③口口⑧ |③-④-|
⑤口②口 |⑤-⑥-|
⑦口⑥口 |⑦-⑧-|
24
①口⑥口 |①-②-|
③口④⑦ |③-④-|
⑤口⑧③ |⑤-⑥-|
⑦口口② |⑦-⑧-|
25
①口口② |①--②|
③②口口 |③-④-|
口①口口
口④④①

口口⑥口
口口口口
⑤口⑦口 |⑤-⑥-|
⑦口口⑧ |⑦-⑧-|
26
①①⑥口 |①--②|
③④④① |③-④-|
⑤口⑦② |⑤-⑥-|
⑦②口⑧ |⑦-⑧-|
27
①①口① |①--②|
③④口⑤ |③-④-|
⑤④口∧ |⑤---|
⑥②②口 |⑥---|
28
⑧口④口 |①-②③|
口⑦③① |④-⑤⑥|
口⑥②口 |⑦-⑧-|
口⑤口⑨ |--⑨-|
29
⑤③口① |①-②-|
④⑥②口 |③-④-|
口⑤①④ |----|
①④口⑤ |⑤-⑥-|
30
口③①口 |①-②-|
口口④② |--③-|
②口⑤口 |④-⑤-|
⑦⑥②口 |⑥-⑦-|
31
①口③⑤ |①-②-|
口②⑥④ |③-④-|
④①⑤口 |----|
⑤口④① |⑤-⑥-|
32
口①③⑨ |①-②-|
②④⑧口 |----③-|
⑤⑦口② |④-⑤-⑥-|
⑥②口口 |⑦-⑧-⑨-|
33
口口⑦口 |①-②-|
口口⑥③ |③-④-|
口口②④ |⑤---|
口①①⑤ |⑥-⑦-|
34
口⑦⑨① |①-②-|
口口口② |③-④⑤|
口口口③ |⑥-⑦-|
④⑤⑥⑧ |⑧-⑨-|
35
⑤口口口 |①-②③|
口④③② |④-⑤-|
①⑧⑥口 |⑥-⑦-|
⑨口口⑦ |⑧-⑨-|
36
口口④② |--①-|
⑤⑥⑦口 |②-③-|
口口③① |④-⑤⑥|
口⑧⑧口 |⑦-⑧-|
37
⑤④口③ |①-②-|
口⑥⑥① |③-④-|
④⑤口口 |--⑤-|
②口口口 |--⑥-|
38
口⑥⑧口 |--①-|
②口口② |②-③④|
口口①口 |⑤-⑥-|
③④⑤⑦ |⑦-⑧-|
39
③口口口 |①-②-|
口口⑤④ |③-④-|
①⑥⑥② |--⑤-|
口口④⑤ |--⑥-|
40
①⑤④③ |--①-|
⑦口口口 |②-③④|
口⑧⑨口 |⑤-⑥-|
②②⑥口 |⑦-⑧⑨|
41
口口口口 |①---|
口口口∨ |--②-|
③④⑤① |--③-|
>━━② |④-⑤-|
42
④⑤⑥口 |--①-|
①②③口 |②-③-|
口口口口 |--④-|
口口口口 |⑤-⑥-|
43
口口口⑧ |①-②-|
④⑤⑥⑦ |③-④-|
③②①① |⑤-⑥-|
口口口① |⑦-⑧-|
44
①⑪⑫⑩ |①-②③|
⑦⑨⑧口 |④-⑤⑥|
口⑤⑥④ |⑦-⑧⑨|
口③②口 |⑩-⑪⑫|
45
口⑤⑤口 |①-②-|
⑥口口⑥ |--③-|
①⑥⑥③ |④---|
②②④④ |⑤-⑥-|
46
口口口口 |----|
口口口口 |----|
口口口口 |----|
口口口口 |----|
47
口②③① |①--②|
口口口口 |--③-|
口④⑤⑥ |--④-|
口②③① |⑤-⑥-|
48
①③②口 |①--②|
⑥⑤④口 |--③-|
口口口口 |--④-|
①③②口 |⑤-⑥-|
49
口②③① |①--②|
口口口口 |--③-|
口④⑤⑥ |--④-|
口②③① |⑤-⑥-|
50
①③②④ |①--②|
口⑤⑦⑨ |--③-|
口⑥⑧⑩ |④-⑤⑥|
①③②④ |⑦⑧⑨⑩|
51
③②⑤⑥ |①--②|
①口口口 |--③-|
口④口口 |④--⑤|
②③⑥⑤ |--⑥-|
52
口口口口 |①---|
口口口口
口口>①
口口口口

⑦⑨⑪口
⑤口③口 |②-③④|
口④口② |⑤-⑥⑦|
⑥⑧⑩口 |⑧⑨⑩⑪|
53
口口口口 |①--②|
③①②④ |--③-|
①⑤⑥② |④---|
口口口口 |--⑤⑥|
54
②④①③ |①-②-|
⑤⑦⑨⑪ |③-④-|
⑥⑧⑩⑫ |⑤⑥⑦⑧|
①③②④ |⑨⑩⑪⑫|
55
①③②口 |①--②|
口口口口 |--③-|
⑥⑤④口 |--④-|
①③②口 |⑤-⑥-|
56
口②③① |①--②|
口④⑤⑥ |--③-|
口口口口 |--④-|
口②③① |⑤-⑥-|
57
①③②口 |①--②|
口口口口 |--③-|
⑥⑤④口 |--④-|
①③②口 |⑤-⑥-|
58
④②③① |①--②|
⑨⑦⑤口 |--③-|
⑩⑧⑥口 |④-⑤⑥|
④②③① |⑦⑧⑨⑩|
59
口④<① |①--②|
口口口∧ |--③-|
口⑤<② |④--⑤|
口⑥③∧ |--⑥-|

口⑤口②
口口口口
口⑥口③
口口口口
60
口口口口 |①---|
>━①口
口口口口
口口口口

口⑤④③
口口②口 |②-③④|
口口⑥⑦ |⑤-⑥⑦|
⑪⑩⑨⑧ |⑧⑨⑩⑪|
61
②④③④ |①--②|
③口②① |--③-|
⑥①口⑤ |④---|
口口口口 |--⑤⑥|
62
口口口口 |①-②-|
口②①口 |③-④-|
口④③口
①③④②

⑨⑧⑦⑥
⑩口口⑤
⑪口口口 |⑤⑥⑦⑧|
⑫口口口 |⑨⑩⑪⑫|
63
⑧口口口 |①-②③|
⑨②⑤⑦ |④-⑤-|
⑩③口∨ |⑥-⑦-|
⑪④⑥① |⑧⑨⑩⑪|
64
⑦④口口 |①-②-|
⑧②③⑤ |③-④-|
⑨口①口 |⑤-⑥-|
⑩口⑥口 |⑦⑧⑨⑩|
65
⑧口口口 |①-②③|
⑨②⑤⑦ |④-⑤-|
⑩③①口 |⑥-⑦-|
⑪④⑥口 |⑧⑨⑩⑪|
66
⑦④⑦口 |①-②-|
⑧②③⑤ |③-④-|
⑨⑤①口 |⑤-⑥-|
⑩③⑥③ |⑦⑧⑨⑩|
67
⑧④口① |①-②③|
⑨口③口 |④-⑤-|
⑩⑤⑥① |⑥-⑦-|
⑪②⑦∧ |⑧⑨⑩⑪|
68
⑦口③∨ |①-②-|
⑧②①① |③-④-|
⑨⑤④① |⑤-⑥-|
⑩口⑥口 |⑦⑧⑨⑩|
69
⑧⑤口口 |①-②③|
⑨②③① |④-⑤-|
⑩⑥④∨ |⑥-⑦-|
⑪①⑦① |⑧⑨⑩⑪|
70
⑤②口口 |①--②|
口口①③ |--③-|
口③②口 |④-⑤-|
口①④口

口口⑧⑨
口口口口
口口口口
⑥⑦口⑥ |⑥⑦⑧⑨|
71
⑦⑥口口 |----|
①口①③ |①---|
口①口① |②-③-|
⑤④②口 |④⑤⑥⑦|
72
口口⑩⑨ |①-②-|
⑤①③口 |③-④-|
②④①③ |⑤-⑥-|
⑥口⑧⑦ |⑦⑧⑨⑩|
73
②口口口 |①-②③|
口③⑥① |④-⑤-|
④⑤①口 |⑥-⑦-|
口口口⑦

⑪⑩口口
口口口口
口口口口
⑨⑧口口 |⑧⑨⑩⑪|
74
⑦口①③ |①-②-|
⑧⑥④② |③-④-|
⑨⑥④② |⑤-⑥-|
⑩口口⑤ |⑦⑧⑨⑩|
75
口①①② |①-②③|
⑦口③⑤ |④-⑤-|
口口口④ |⑥-⑦-|
口⑥口口

口口⑩⑪
口口口口
口口口口
口口⑧⑨ |⑧⑨⑩⑪|
76
⑨⑩口口 |①-②-|
口③①⑤ |③-④-|
③①④② |⑤-⑥-|
⑦⑧口⑥ |⑦⑧⑨⑩|
77
口口口② |①-②③|
①⑥③⑤ |④-⑤-|
口①口④ |⑥-⑦-|
⑦口口口

口口⑩⑪
口口口口
口口口口
口口⑧⑨ |⑧⑨⑩⑪|
78
口口口口 |①-②③|
③⑤②⑥ |④-⑤⑥|
口口①④
口①口口

⑬⑪⑨口
口口口口
口口口口 |⑦-⑧⑨|
⑦⑫⑩⑧ |⑩⑪⑫⑬|
79
口口口③ |①-②-|
口口⑤口 |--③-|
口①②④ |--④-|
口口口口 |--⑤-|
80
口口口口 |--①-|
口口口口 |②---|
口口口口 |----|
口②①口 |----|
最終更新:2020年02月06日 14:44