アットウィキロゴ
Our Love
lapix

BASIC

Level: 3
BPM: 190
Notes: 236

1
口口口口 |----|
口口口口 |----|
口口口口 |----|
口口口口 |----|
2
口口口口 |①---|
口口口口 |----|
口口口口 |----|
口①①口 |----|
3
口口口口 |①---|
口口口口 |----|
口①①口 |----|
口口口口 |----|
4
口口口口 |①---|
口口口口 |----|
口口口口 |----|
口①①口 |----|
5
口口口口 |①---|
口口口口 |----|
口①①口 |----|
口口口口 |----|
6
口①①口 |①---|
口口口口 |----|
口口口口 |----|
口口口口 |----|
7
口口口口 |①---|
口①①口 |----|
口口口口 |----|
口口口口 |----|
8
口①①口 |①---|
口口口口 |----|
口口口口 |----|
口口口口 |----|
9
口口口口 |①---|
口①①口 |----|
口口口口 |----|
口口口口 |----|
10
①口口口 |①---|
口口口口 |----|
口口口口 |----|
口口口口 |----|
11
口口口口 |①---|
①口口口 |----|
口口口口 |----|
口口口口 |----|
12
口口口口 |①---|
口口口口 |----|
①①口口 |----|
口口口口 |----|
13
口口口口 |①---|
①①口口 |----|
口口口口 |----|
口口口口 |----|
14
口口口① |①---|
口口口口 |----|
口口口口 |----|
口口口口 |----|
15
口口口口 |①---|
口口口① |----|
口口口口 |----|
口口口口 |----|
16
口口口口 |①---|
口口口口 |----|
口口①① |----|
口口口口 |----|
17
口口口口 |①---|
口口①① |----|
口口口口 |----|
口口口口 |----|
18
口口口口 |①---|
①口口口 |----|
②口口口 |②---|
口口口口 |----|
19
口口口口 |①---|
②②口口 |----|
口①口口 |②---|
口口口口 |----|
20
口口口口 |①---|
口口口① |----|
口口口② |②---|
口口口口 |----|
21
口口口口 |①---|
口口②② |----|
口口①口 |②---|
口口口口 |----|
22
口②口口 |----|
①口口① |----|
口口口口 |①---|
口口口口 |②---|
23
口口口口 |----|
口口①口 |①---|
口②口口 |----|
口口口口 |②---|
24
口口口口 |①---|
①口口① |----|
②口口② |----|
口口口口 |②---|
25
①口口① |----|
口口口口 |----|
口口口口 |①---|
口口口口 |----|
26
口口口口 |①---|
口口口① |----|
口口口② |②---|
口口口口 |----|
27
口口口口 |①---|
口口②② |----|
口口①口 |②---|
口口口口 |----|
28
口口口口 |①---|
①口口口 |----|
②口口口 |②---|
口口口口 |----|
29
口口口口 |①---|
②②口口 |----|
口①口口 |②---|
口口口口 |----|
30
口口②口 |----|
①口口① |----|
口口口口 |①---|
口口口口 |②---|
31
口口口口 |----|
口①口口 |①---|
口口②口 |----|
口口口口 |②---|
32
口口口口 |①---|
①口口① |----|
②口口② |----|
口口口口 |②---|
33
①口口① |----|
口口口口 |----|
口口口口 |①---|
口口口口 |----|
34
口口口口 |①---|
口口口口 |----|
口口②口 |②---|
口①口口 |----|
35
口口②口 |①---|
口①口口 |----|
口口口口 |②---|
口口口口 |----|
36
口①口口 |①---|
口口②口 |----|
口口口口 |②---|
口口口口 |----|
37
口口口口 |①---|
口口口口 |----|
口①口口 |②---|
口口②口 |----|
38
口口口口 |①---|
口②口口 |----|
①口口口 |②---|
口口口口 |----|
39
口口口口 |①---|
口口口② |----|
口口①口 |②---|
口口口口 |----|
40
口口口口 |①---|
口口②口 |----|
口口口① |②---|
口口口口 |----|
41
口口口口 |①---|
②口口口 |----|
口①口口 |②---|
口口口口 |----|
42
①口口口 |①---|
口②口口 |----|
口口口口 |②---|
口口口口 |----|
43
口口口口 |①---|
口口口口 |----|
口口①口 |②---|
口口口② |----|
44
口口口口 |①---|
口口口口 |----|
口②口口 |②---|
①口口口 |----|
45
口口口② |①---|
口口①口 |----|
口口口口 |②---|
口口口口 |----|
46
①①口口 |①---|
口口②② |----|
口口口口 |②---|
口口口口 |----|
47
口口口口 |①---|
口口口口 |----|
①①口口 |②---|
口口②② |----|
48
口口口口 |①---|
口口口口 |----|
口口②② |②---|
①①口口 |----|
49
口口②② |①---|
①①口口 |----|
口口口口 |②---|
口口口口 |----|
50
口口口口 |①---|
口口口口 |----|
口口口口 |----|
口①①口 |----|
51
口口口口 |①---|
口口口口 |----|
口①①口 |----|
口口口口 |----|
52
口口口口 |①---|
口口口口 |----|
口口口口 |----|
口①①口 |----|
53
口口口口 |①---|
口口口口 |----|
口①①口 |----|
口口口口 |----|
54
口①①口 |①---|
口口口口 |----|
口口口口 |----|
口口口口 |----|
55
口口口口 |①---|
口①①口 |----|
口口口口 |----|
口口口口 |----|
56
口①①口 |①---|
口口口口 |----|
口口口口 |----|
口口口口 |----|
57
口口口口 |①---|
口①①口 |----|
口口口口 |----|
口口口口 |----|
58
口口口① |①---|
口口口口 |----|
口口口口 |----|
口口口口 |----|
59
口口口口 |①---|
口口口① |----|
口口口口 |----|
口口口口 |----|
60
口口口口 |①---|
口口口口 |----|
口口①① |----|
口口口口 |----|
61
口口口口 |①---|
口口①① |----|
口口口口 |----|
口口口口 |----|
62
①口口口 |①---|
口口口口 |----|
口口口口 |----|
口口口口 |----|
63
口口口口 |①---|
①口口口 |----|
口口口口 |----|
口口口口 |----|
64
口口口口 |①---|
口口口口 |----|
①①口口 |----|
口口口口 |----|
65
口口口口 |①---|
①①口口 |----|
口口口口 |----|
口口口口 |----|
66
①①①① |①---|
口口口口 |----|
口口口口 |----|
口口口口 |----|
67
口口口口 |----|
口口口口 |----|
口口口口 |----|
口口口口 |----|
68
口口口口 |----|
口口口口 |----|
口口口口 |----|
口口口口 |----|
69
口口口口 |----|
口口口口 |----|
口口口口 |----|
口口口口 |----|
70
口口口口 |①---|
口①口口 |----|
口口①口 |----|
口口口口 |----|
71
口口口口 |①---|
口口①口 |----|
口①口口 |----|
口口口口 |----|
72
口口口口 |①---|
①口口② |----|
①口口② |②---|
口口口口 |----|
73
口②②口 |①---|
口口口口 |----|
口口口口 |②---|
口①①口 |----|
74
口口口口 |①---|
口口口口 |②---|
口①②③ |③---|
口口口口 |----|
75
口口口口 |①---|
口③②① |②---|
口口口口 |③---|
口口口口 |----|
76
口口口口 |①---|
口口口口 |----|
口①①口 |②---|
口②②口 |----|
77
口口口口 |①---|
①口口② |----|
①口口② |②---|
口口口口 |----|
78
口口口口 |①---|
口口口口 |②---|
③②①口 |③---|
口口口口 |----|
79
口口口口 |①---|
①②③口 |②---|
口口口口 |③---|
口口口口 |----|
80
口口口口 |①---|
口口口口 |----|
口①①口 |②---|
口②②口 |----|
81
口口口口 |①---|
②口口① |----|
②口口① |②---|
口口口口 |----|
82
口②①口 |①---|
口④③口 |②---|
口口口口 |③---|
口口口口 |④---|
83
口口口口 |①---|
口口口口 |②---|
口②①口 |③---|
口④③口 |④---|
84
口口口口 |①---|
口④③口 |②---|
口②①口 |③---|
口口口口 |④---|
85
口②①口 |①---|
口④③口 |②---|
口口口口 |③---|
口口口口 |④---|
86
口口口① |①---|
口口口口 |----|
口②②口 |②---|
口口口口 |----|
87
①口口口 |①---|
口口口口 |----|
口②②口 |②---|
口口口口 |----|
88
②②①① |①---|
④④③③ |②---|
口口口口 |③---|
口口口口 |④---|
89
口口口口 |①---|
口口口口 |②---|
②②①① |③---|
④④③③ |④---|
90
口口口口 |①---|
口口口口 |----|
口口口① |----|
口口口口 |----|
91
口口口口 |①---|
口口口口 |----|
①口口口 |----|
口口口口 |----|
92
口①①口 |①---|
口口口口 |----|
口口口口 |----|
口口口口 |----|
93
口口口口 |①---|
②①①② |----|
口口口口 |②---|
口口口口 |----|
94
口口口口 |①---|
口口口口 |----|
①口口口 |----|
口口口口 |----|
95
口口口口 |①---|
口口口口 |----|
口口口① |----|
口口口口 |----|
96
口①①口 |①---|
口口口口 |----|
口口口口 |----|
口口口口 |----|
97
口口口口 |①---|
②①①② |----|
口口口口 |②---|
口口口口 |----|

accuracy: 100%
最終更新:2022年03月26日 03:22