アットウィキロゴ
Our Love
lapix

ADVANCED

Level: 6
BPM: 190
Notes: 430

1
口口口口 |----|
口口口口 |----|
口口口口 |----|
口口口口 |----|
2
口口口口 |①---|
①口口① |----|
口口口口 |----|
口口口口 |----|
3
口①口口 |①---|
口口②口 |②---|
口③口口 |③---|
口口口口 |----|
4
口口①口 |①---|
口②口口 |②---|
口口③口 |③---|
口④口口 |④---|
5
口口口口 |①---|
口口口口 |----|
①口口① |----|
口口口口 |----|
6
口口口口 |①---|
①口口① |----|
口口口口 |----|
口口口口 |----|
7
口口①口 |①---|
口②口口 |②---|
口口③口 |③---|
口口口口 |----|
8
口①口口 |①---|
口口②口 |②---|
口③口口 |③---|
口口④口 |④---|
9
口口④口 |①---|
口③口口 |②---|
口口②口 |③---|
口①口口 |④---|
10
①口口口 |①---|
②口口口 |②---|
③口口口 |③---|
④口口口 |④---|
11
口口口① |①---|
口口口② |②---|
口口口③ |③---|
口口口④ |④---|
12
口①口口 |①---|
口口②口 |②---|
口③口口 |③---|
口口④口 |④---|
13
口口口口 |①---|
口口口口 |----|
①口口① |----|
口口口口 |----|
14
口口口① |①---|
口口②口 |②---|
口③口口 |③---|
④口口口 |④---|
15
①口口口 |①---|
口②口口 |②---|
口口③口 |③---|
口口口④ |④---|
16
口①口口 |①---|
口口②口 |②---|
口③口口 |③---|
口口④口 |④---|
17
②②②② |①---|
口口口口 |----|
①口口① |②---|
口口口口 |----|
18
口口③口 |----|
口口③口 |①---|
口②①口 |②---|
口②①口 |③---|
19
①④④口 |①---|
②口口口 |②---|
③口口口 |③---|
口口口口 |④---|
20
口③口口 |----|
口③口口 |①---|
口①②口 |②---|
口①②口 |③---|
21
口口口① |①---|
口口口② |②---|
口口口③ |③---|
口口口口 |----|
22
口口口口 |①---|
②①①② |----|
口③口口 |②---|
口口口口 |③---|
23
口①③口 |①---|
口口口口 |②---|
口口②④ |③---|
口口口口 |④---|
24
口口口口 |①---|
①口口③ |----|
口口口口 |②---|
②②口口 |③---|
25
②口口② |----|
口口口口 |①---|
口口口口 |②---|
口口①① |----|
26
口③口口 |----|
口③口口 |①---|
口①②口 |②---|
口①②口 |③---|
27
口④④① |①---|
口口口② |②---|
口口口③ |③---|
口口口口 |④---|
28
口口③口 |----|
口口③口 |①---|
口②①口 |②---|
口②①口 |③---|
29
①口口口 |①---|
②口口口 |②---|
③口口口 |③---|
口口口口 |----|
30
口口口口 |①---|
②①①② |----|
口口③口 |②---|
口口口口 |③---|
31
口③①口 |①---|
口口口口 |②---|
④②口口 |③---|
口口口口 |④---|
32
口口口口 |①---|
③口口① |----|
口口口口 |②---|
口口②② |③---|
33
②口口② |----|
口口口口 |①---|
口口口口 |②---|
①①口口 |----|
34
口口口口 |①---|
口口口口 |②---|
口④③口 |③---|
口②①口 |④---|
35
口④③口 |①---|
口②①口 |②---|
口口口口 |③---|
口口口口 |④---|
36
②口口① |①---|
④口口③ |②---|
口口口口 |③---|
口口口口 |④---|
37
口口口口 |①---|
口口口口 |②---|
②口口① |③---|
④口口③ |④---|
38
口口口口 |①---|
口口口口 |②---|
口④③口 |③---|
口②①口 |④---|
39
口④③口 |①---|
口②①口 |②---|
口口口口 |③---|
口口口口 |④---|
40
②口口① |①---|
④口口③ |②---|
口口口口 |③---|
口口口口 |④---|
41
口口口口 |①---|
口口口口 |②---|
②口口① |③---|
④口口③ |④---|
42
口口口口 |①---|
①③口口 |②---|
②④口口 |③---|
口口口口 |④---|
43
口口口口 |①---|
口口①③ |②---|
口口②④ |③---|
口口口口 |④---|
44
口口③① |①---|
口口口口 |②---|
口口口口 |③---|
口口④② |④---|
45
口①口口 |①---|
口③口口 |②---|
口口③口 |③---|
口②口口 |----|
46
口口口口 |①---|
口口③① |②---|
口口④② |③---|
口口口口 |④---|
47
口口口口 |①---|
③①口口 |②---|
④②口口 |③---|
口口口口 |④---|
48
①③口口 |①---|
口口口口 |②---|
口口口口 |③---|
②④口口 |④---|
49
口口①口 |①---|
②口口③ |--②-|
②口口③ |--③-|
口口口口 |----|
50
口口口口 |①---|
口①①口 |----|
口①①口 |----|
口口口口 |----|
51
口①口口 |①---|
口口②口 |②---|
口③口口 |③---|
口口口口 |----|
52
口口①口 |①---|
口②口口 |②---|
口口③口 |③---|
口④口口 |④---|
53
口口口口 |①---|
口口口口 |----|
①口口① |----|
口口口口 |----|
54
口口口口 |①---|
①口口① |----|
口口口口 |----|
口口口口 |----|
55
口口①口 |①---|
口②口口 |②---|
口口③口 |③---|
口口口口 |----|
56
口①口口 |①---|
口口②口 |②---|
口③口口 |③---|
口口④口 |④---|
57
口口④口 |①---|
口③口口 |②---|
口口②口 |③---|
口①口口 |④---|
58
①口口口 |①---|
②口口口 |②---|
③口口口 |③---|
④口口口 |④---|
59
口口口① |①---|
口口口② |②---|
口口口③ |③---|
口口口④ |④---|
60
口①口口 |①---|
口口②口 |②---|
口③口口 |③---|
口口④口 |④---|
61
口口口口 |①---|
口口口口 |----|
①口口① |----|
口口口口 |----|
62
口口口① |①---|
口口②口 |②---|
口③口口 |③---|
④口口口 |④---|
63
①口口口 |①---|
口②口口 |②---|
口口③口 |③---|
口口口④ |④---|
64
口①口口 |①---|
口口②口 |②---|
口③口口 |③---|
口口④口 |④---|
65
②②②② |①---|
口口口口 |----|
①口口① |②---|
口口口口 |----|
66
口口口口 |①---|
口①口口 |----|
口口①口 |----|
口口口口 |----|
67
口口口口 |①---|
口口①口 |----|
口①口口 |----|
口口口口 |----|
68
口口口口 |①---|
①口口口 |----|
口口口① |----|
口口口口 |----|
69
口口口口 |①---|
口口口① |----|
①口口口 |----|
口口口口 |----|
70
口①①口 |①---|
口②②口 |②---|
口③③口 |③---|
口④④口 |④---|
71
①口口① |①---|
②口口② |②---|
③口口③ |③---|
④口口④ |④---|
72
①①口口 |①---|
口口②② |②---|
③③口口 |③---|
口口④④ |④---|
73
④口口④ |①---|
口③口口 |②---|
口口②口 |③---|
口①口口 |④---|
74
口②口口 |①---|
口口②③ |②---|
口①③口 |③---|
口口①口 |----|
75
口②口口 |①---|
口口②③ |②---|
口①③口 |③---|
口口①口 |----|
76
②口①① |①---|
④口③③ |②---|
口口口口 |③---|
口口口口 |④---|
77
口口口口 |①---|
口口口口 |②---|
②口①① |③---|
④口③③ |④---|
78
口口②口 |①---|
③②口口 |②---|
口③①口 |③---|
口①口口 |----|
79
口口②口 |①---|
③②口口 |②---|
口③①口 |③---|
口①口口 |----|
80
①①口② |①---|
③③口④ |②---|
口口口口 |③---|
口口口口 |④---|
81
口口口口 |①---|
口口口口 |②---|
①①口② |③---|
③③口④ |④---|
82
③③口口 |①---|
①口②口 |②---|
①口②口 |③---|
口口口口 |----|
83
口口③③ |①---|
口②口① |②---|
口②口① |③---|
口口口口 |----|
84
口口口④ |①---|
②口口口 |②---|
口③③口 |③---|
口①①口 |④---|
85
口③③口 |①---|
口①①口 |②---|
口口口④ |③---|
②口口口 |④---|
86
③③口口 |①---|
②②口口 |②---|
①①口口 |③---|
口④④口 |④---|
87
口口③③ |①---|
口口②② |②---|
口口①① |③---|
口④④口 |④---|
88
③口口④ |①---|
①③④② |②---|
口①②口 |③---|
口口口口 |④---|
89
口③③口 |①---|
①口口② |②---|
口①②口 |③---|
口④④口 |④---|
90
②口口口 |①---|
口口口口 |②---|
①③口口 |③---|
③口口口 |----|
91
口口口② |①---|
口口口口 |②---|
口口③① |③---|
口口口③ |----|
92
口①④口 |①---|
口口②口 |②---|
口③口口 |③---|
口口口口 |④---|
93
口④口口 |①---|
④①口口 |②---|
口口②口 |③---|
口③③口 |④---|
94
口口口② |①---|
口口口口 |②---|
口口③① |③---|
口口口③ |----|
95
②口口口 |①---|
口口口口 |②---|
①③口口 |③---|
③口口口 |----|
96
口④①口 |①---|
口②口口 |②---|
口口③口 |③---|
口口口口 |④---|
97
口口④口 |①---|
口口①④ |②---|
口②口口 |③---|
口③③口 |④---|

accuracy: 100%
最終更新:2022年03月26日 03:23