アットウィキロゴ
Our Love
lapix

EXTREME

Level: 10.2
BPM: 190
Notes: 906

1
口口口口 |----|
口口口口 |----|
口口口口 |----|
口①①口 |①---|
2
①口口① |①---|
口口口④ |②---|
口口口③ |③---|
口口口② |④---|
3
①口口口 |①-②-|
⑥③口⑥ |③-④-|
口②口口 |⑤---|
⑤口④口 |⑥---|
4
口口口① |①-②-|
⑥口③⑥ |③-④-|
口口②口 |⑤---|
口④口⑤ |⑥---|
5
口①②口 |①-②-|
⑤口口口 |③---|
④口口口 |④---|
③⑤⑤口 |⑤---|
6
①口口① |①---|
口口口④ |②---|
口口口③ |③---|
口口口② |④---|
7
①口口口 |①-②-|
口③口口 |③-④-|
口②口口 |⑤---|
⑤口④口 |----|
8
口口口① |①-②-|
⑥口③⑥ |③-④-|
口口②口 |⑤---|
口④口⑤ |⑥---|
9
口③②口 |①-②-|
口①④口 |③-④-|
口⑤⑧口 |⑤-⑥-|
口⑦⑥口 |⑦-⑧-|
10
④口口④ |①---|
③口口③ |②---|
②口⑤② |③---|
①⑤口① |④-⑤-|
11
④口口④ |①---|
③口口③ |②---|
②口口② |③---|
①口口① |④---|
12
⑦⑧口⑦ |①-②-|
⑤口⑥⑤ |③-④-|
③④口③ |⑤-⑥-|
①口②① |⑦-⑧-|
13
④口①④ |①---|
③①口③ |②---|
②口口② |③---|
口口口口 |④---|
14
⑥口①⑦ |①---|
④口①⑤ |②-③-|
②①口③ |④-⑤-|
口①口口 |⑥-⑦-|
15
⑥①口⑦ |①---|
④①口⑤ |②-③-|
②口①③ |④-⑤-|
口口①口 |⑥-⑦-|
16
⑦口⑧⑦ |①-②-|
⑤⑥口⑤ |③-④-|
③口④③ |⑤-⑥-|
①②口① |⑦-⑧-|
17
④①口④ |①---|
口口①口 |②---|
③④④② |③---|
口③②口 |④---|
18
口口③口 |①---|
②口口口 |②---|
④口口⑦ |③--④|
①⑥⑤① |⑤⑥⑦-|
19
②⑨口① |①-②-|
口⑦⑧口 |③-④-|
口⑤⑥口 |⑤⑥⑦⑧|
③口口④ |⑨---|
20
①口③① |①---|
②口口口 |②---|
④口口⑦ |③--④|
口⑥⑤口 |⑤⑥⑦-|
21
①⑤口④ |①-②-|
口口⑥口 |③-④-|
口⑦口口 |⑤-⑥-|
②口⑧③ |⑦-⑧-|
22
⑥⑤口④ |①-②-|
③③⑤口 |③-④-|
口⑥口② |⑤---|
①①口口 |⑥---|
23
④③①② |①---|
口口口口 |②---|
③④②① |③---|
口口口口 |④---|
24
⑦口⑤② |①-②-|
③③口口 |③-④-|
口口口④ |⑤---|
①①⑥⑥ |⑥-⑦-|
25
口③④⑤ |①-②-|
④⑤①① |③---|
②口④⑤ |④---|
口口口口 |⑤---|
26
口③口口 |①---|
口口口② |②---|
⑦口口④ |③--④|
①⑤⑥① |⑤⑥⑦-|
27
①⑤口② |①-②-|
口口⑥口 |③-④-|
口⑦口口 |⑤-⑥-|
④口⑧③ |⑦-⑧-|
28
④口口⑤ |①②③④|
②口口③ |⑤---|
口口口①
口口口口

口⑥口口
口口口口
⑦口口⑩ |⑥--⑦|
口⑨⑧口 |⑧⑨⑩-|
29
口④①口 |①-②-|
口口口⑦ |③---|
口⑤②口 |④-⑤-|
③口口⑥ |⑥-⑦-|
30
⑤口⑥④ |①-②-|
⑥③③口 |③-④-|
②口口口 |⑤---|
口①①口 |⑥---|
31
③①④② |①---|
④②③① |②---|
口口口口 |③---|
口口口口 |④---|
32
口口口口 |①-②-|
⑥⑥口① |③---|
口⑤②口 |④-⑤-|
④口③③ |⑥---|
33
④①口③ |①---|
口口口① |②---|
②口口口 |③---|
③口②④ |④---|
34
口⑥②③ |①---|
口①①② |②---|
②④⑤口 |③--④|
口②口口 |⑤-⑥-|
35
口口⑨⑦ |①②③-|
③②①口 |④⑤⑥-|
口⑧口口 |⑦--⑧|
⑥⑤④口 |--⑨-|
36
③②⑥口 |①---|
②①①口 |②---|
口⑤④② |③--④|
口口②口 |⑤-⑥-|
37
口口口⑦ |①②③-|
⑧①②③ |④⑤⑥-|
口口口⑨ |⑦-⑧-|
口④⑤⑥ |⑨---|
38
口⑥②③ |①---|
口①①② |②---|
②④⑤口 |③--④|
口②口口 |⑤-⑥-|
39
口口⑨⑦ |①②③-|
③②①口 |④⑤⑥-|
口⑧口口 |⑦--⑧|
⑥⑤④口 |--⑨-|
40
③②⑥口 |①---|
②①①口 |②---|
口⑤④② |③--④|
口口②口 |⑤-⑥-|
41
口口口⑦ |①②③-|
⑧①②③ |④⑤⑥-|
口口口⑩ |⑦-⑧-|
⑨④⑤⑥ |⑨-⑩-|
42
①⑦③④ |①-②-|
⑦②口③ |③---|
③⑤⑥口 |④--⑤|
口③⑦口 |⑥-⑦-|
43
④口⑥③ |--①-|
口口口口 |②-③-|
口口口口 |④--⑤|
①⑤口② |--⑥-|
44
③②⑥口 |①---|
②①①⑥ |②---|
口⑤④② |③--④|
口⑥②口 |⑤-⑥-|
45
③④口④ |--①-|
⑤口口口 |②-③-|
口⑥口⑥ |④-⑤-|
②口⑦① |⑥-⑦-|
46
口⑥②③ |①---|
⑥①①② |②---|
②④⑤口 |③--④|
口②⑥口 |⑤-⑥-|
47
④口⑥③ |--①-|
口口口口 |②-③-|
口口口口 |④--⑤|
①⑤口② |--⑥-|
48
③②⑥口 |①---|
②①①⑥ |②---|
口⑤④② |③--④|
口⑥②口 |⑤-⑥-|
49
③②口④ |①---|
②③④口 |②-③-|
口④口口 |--④-|
④⑤⑤① |⑤---|
50
口口①口 |①---|
口口口① |----|
口口口① |----|
口口口口 |----|
51
①③口② |①-②-|
⑤口口④ |③-④-|
③①口口 |⑤---|
⑥⑤口⑥ |⑥---|
52
②口③① |①-②-|
④口口⑤ |③-④-|
口口①③ |⑤---|
⑥口⑤⑥ |⑥---|
53
①口口② |①-②-|
口①②④ |③---|
口②①③ |④---|
口⑤⑤口 |⑤---|
54
口①口口 |①---|
①②②口 |----|
①口口口 |--②-|
口口口口 |----|
55
②口③① |①-②-|
④口口⑤ |③-④-|
口口①③ |⑤---|
⑥口⑤⑥ |⑥---|
56
①③口② |①-②-|
口口口④ |③-④-|
③①口口
口口口口

口口口口
⑤口口口
口⑦⑦口 |⑤---|
⑥⑤口⑥ |⑥-⑦-|
57
②④③① |--①-|
④②①③ |②-③-|
⑥口口⑤ |④-⑤-|
口⑥⑤口 |⑥---|
58
口④②① |①---|
口③③口 |②---|
口②④口 |③---|
口⑤口① |④-⑤-|
59
①④②口 |①---|
口③③口 |②---|
口②④口 |③---|
①口口口 |④---|
60
⑤口口① |①-②-|
⑦口口⑥ |③-④-|
④口口③ |⑤-⑥-|
⑤②⑧① |⑦-⑧-|
61
口④②① |①---|
口③③口 |②---|
口②④口 |③---|
口口口① |④---|
62
①口口口 |①-②-|
⑦⑧口口 |③-④-|
③④⑥⑤ |⑤-⑥-|
口口②① |⑦-⑧-|
63
口口③① |①-②-|
口口④② |③-④-|
口口口口
①口口口

口口口口
口口口口
⑦⑤口口 |⑤-⑥-|
⑧⑥口口 |⑦-⑧-|
64
⑧②口⑤ |①②③④|
④⑥口① |⑤⑥⑦⑧|
口口③口
口口口⑦

口⑯⑬口
口口⑨⑮
⑫口口⑪ |⑨⑩⑪⑫|
⑭⑩口口 |⑬⑭⑮⑯|
65
口⑩⑪口 |①-②-|
⑨③④⑫ |③-④-|
⑧②①⑤ |⑤⑥⑦⑧|
口⑦⑥口 |⑨⑩⑪⑫|
66
①④口① |①---|
③口⑤口 |----|
口①①⑥ |②-③-|
②口口口 |④⑤⑥-|
67
②口口口 |①-②③|
口③口口 |-④⑤-|
口①口口
口⑤④口

口口口⑧
口口⑨⑦
口⑩口口 |⑥-⑦-|
口口口⑥ |⑧⑨⑩-|
68
②口⑦⑧ |①-②③|
口③⑨口 |-④⑤-|
⑥⑩口① |⑥-⑦-|
口⑤④口 |⑧⑨⑩-|
69
⑧②⑦口 |①-②③|
③⑨口① |-④⑤-|
⑥口⑩④ |⑥-⑦-|
口口⑤⑪ |⑧⑨⑩⑪|
70
口⑥口⑦ |①---|
④口⑤① |②-③-|
口②口③ |④-⑤-|
①①口口 |⑥-⑦-|
71
①口①口 |①---|
③口口② |②-③-|
⑤口①④ |④-⑤-|
⑦口口⑥ |⑥-⑦-|
72
③口②⑧ |①②③④|
⑦口⑥④ |⑤⑥⑦⑧|
口①口口
口⑤口口

口⑪⑯口
口⑨口口
⑬⑮口⑫ |⑨⑩⑪⑫|
口口⑩⑭ |⑬⑭⑮⑯|
73
①②口口 |①---|
口口口② |----|
②口口口 |----|
口口②口 |②---|
74
②⑦③口 |①-②-|
⑦④②⑧ |③-④-|
⑦③①⑧ |⑤-⑥-|
①⑤⑥⑤ |⑦-⑧-|
75
②⑦③口 |①-②-|
⑦④②口 |③-④-|
口③①口 |⑤-⑥-|
①⑤⑥⑤ |⑦---|
76
①口③① |①-②-|
口口口② |③-④-|
口口口③
口口口④

⑧口口口
口口口口
⑦口⑤口 |⑤-⑥-|
⑦⑥⑤口 |⑦-⑧-|
77
⑦①⑤① |①-②-|
⑥③②③ |③-④-|
口口口④ |⑤-⑥-|
口⑦口口 |⑦---|
78
口③⑦② |①-②-|
⑧②④⑦ |③-④-|
⑧①③⑦ |⑤-⑥-|
⑤⑥⑤① |⑦-⑧-|
79
口③⑦② |①-②-|
口②④⑦ |③-④-|
口①③口 |⑤-⑥-|
⑤⑥⑤① |⑦---|
80
①③口① |①-②-|
②口口口 |③-④-|
③口口口
④口口口

口口口⑧
口口口口
口⑤口⑦ |⑤-⑥-|
口⑤⑥⑦ |⑦-⑧-|
81
①⑤①⑦ |①-②-|
③②③⑥ |③-④-|
④口口口 |⑤-⑥-|
口口⑦口 |⑦---|
82
口⑪⑩⑨ |①-②-|
口⑧⑦⑥ |③④⑤-|
口⑤④③ |⑥⑦⑧-|
②口口① |⑨⑩⑪-|
83
⑨⑩⑪口 |①-②-|
⑥⑦⑧口 |③④⑤-|
③④⑤口 |⑥⑦⑧-|
①口口② |⑨⑩⑪-|
84
⑥⑧口口 |①-②-|
④口口① |③-④-|
②口口③ |⑤-⑥-|
口口⑦⑤ |⑦-⑧-|
85
④口口① |①-②-|
③②⑤⑥ |--③-|
②③⑥⑤ |④-⑤-|
③②⑤⑥ |--⑥-|
86
⑥⑤③① |--①-|
⑥⑦口口 |②-③-|
⑦口⑦口 |④-⑤-|
④②口口 |⑥-⑦-|
87
⑦⑥④② |①-②-|
⑧⑦⑧口 |③-④-|
口⑧口口 |⑤-⑥-|
⑤③①① |⑦-⑧-|
88
⑦⑤④② |①-②-|
口口口口 |③-④-|
口口口① |⑤-⑥-|
⑧⑥③① |⑦-⑧-|
89
口口口口 |①-②-|
①③②口 |③---|
口②③①
口口口口

⑤口④⑥
口口口⑦
口口口⑧ |④-⑤-|
口口口⑨ |⑥⑦⑧⑨|
90
⑤③口口 |①-②-|
口口②口 |③---|
④①口口 |④---|
口④④口 |⑤---|
91
口口③⑤ |①-②-|
口②口口 |③---|
口口①④ |④---|
口④④口 |⑤---|
92
口口口口 |①-②-|
③②⑦口 |③-④-|
①④口⑥ |⑤---|
⑤口口口 |⑥-⑦-|
93
⑥口口⑦ |①-②-|
口口口① |③---|
口口②口 |④-⑤-|
口④⑤③ |⑥-⑦-|
94
口④口口 |①-②-|
③④口口 |③---|
口④口② |④---|
①④口口 |----|
95
口④口口 |①-②-|
④口④③ |③---|
②④口④ |④---|
口口口① |----|
96
①④④⑤ |①-②-|
⑥④④② |③---|
③④口口 |④---|
口口口口 |⑤-⑥-|
97
②口口口 |①---|
口③口③ |②---|
②口③① |③---|
②③口③ |----|

accuracy: 100%
最終更新:2022年03月26日 04:39