アットウィキロゴ
ゆめのかなたで
かめりあ

BASIC

Level: 4
BPM: 217
Note: 343

1
口口口口 |----|
口口口口 |----|
口口口口 |----|
口口口口 |----|
2
口口口口 |①---|
口口口口 |----|
口①口口 |----|
口口口口 |----|
3
口口口口 |①---|
口①口口 |----|
口口口口 |----|
口口口口 |----|
4
口口口口 |①---|
口口口口 |----|
口口①口 |----|
口口口口 |----|
5
口口口口 |①---|
口口①口 |----|
口口口口 |----|
口口口口 |----|
6
口口口口 |①---|
口口口口 |----|
口①口口 |----|
口口口口 |----|
7
口口口口 |①---|
口口口口 |----|
口口①口 |----|
口口口口 |----|
8
口口口口 |①---|
口①①口 |----|
口口口口 |----|
口口口口 |----|
9
口口口口 |----|
口口口口 |----|
口口口口 |----|
口口口口 |----|
10
口口口口 |①---|
口口口口 |----|
口①①口 |----|
口口口口 |----|
11
口口口口 |①---|
①口口② |--②-|
口③③口 |----|
口口口口 |③---|
12
口口口口 |----|
口口口口 |----|
口口口口 |----|
口口口口 |----|
13
口口口口 |①---|
②口口① |--②-|
口③③口 |----|
口口口口 |③---|
14
口口口口 |----|
口口口口 |----|
①口口① |①---|
口口口口 |----|
15
口①口口 |①---|
口口②口 |----|
口③③口 |②---|
口口口口 |--③-|
16
口口口口 |----|
①口口① |--①-|
口口口口 |----|
口口口口 |----|
17
口口①口 |①---|
口②口口 |----|
口口口口 |②---|
口口口口 |----|
18
口口口口 |①---|
口口口口 |----|
②①①② |②---|
口口口口 |----|
19
口①口口 |①---|
口口②口 |----|
口③③口 |②---|
口口口口 |--③-|
20
②口口② |----|
①口口① |--①-|
口口口口 |----|
口口口口 |②---|
21
口口口口 |----|
口口口口 |----|
口①①口 |①---|
口口口口 |----|
22
口口口口 |①---|
①②③④ |②---|
口口口口 |③---|
口口口口 |④---|
23
口口口口 |①---|
口口口口 |②---|
④③②① |③---|
口口口口 |④---|
24
口口口口 |①---|
①②③④ |②---|
口口口口 |③---|
口口口口 |④---|
25
④③②① |①---|
口口口口 |②---|
口口口口 |③---|
口口口口 |④---|
26
口口口口 |①---|
①②③④ |②---|
口口口口 |③---|
口口口口 |④---|
27
口口口口 |①---|
口口口口 |②---|
④③②① |③---|
口口口口 |④---|
28
口口口口 |①---|
①②③④ |②---|
口口口口 |③---|
口口口口 |④---|
29
④③②① |①---|
口口口口 |②---|
口口口口 |③---|
口口口口 |④---|
30
口口口口 |①---|
口②①口 |----|
口②①口 |----|
口口口口 |--②-|
31
口口口口 |----|
口口口口 |----|
口口口口 |----|
口①①口 |--①-|
32
口口口口 |----|
①口口① |----|
口口口口 |----|
口口口口 |--①-|
33
口口口口 |----|
口口口口 |----|
口口口口 |----|
口口口口 |----|
34
口口口口 |①---|
口①②口 |----|
口①②口 |----|
口口口口 |--②-|
35
①①①① |----|
口口口口 |----|
口口口口 |----|
口口口口 |--①-|
36
口口口口 |----|
口口口口 |----|
口口口口 |----|
口口口口 |----|
37
口口口口 |----|
口口口口 |----|
口口口口 |----|
口口口口 |----|
38
口口口口 |①---|
③口口① |②---|
口④②口 |③---|
口口口口 |④---|
39
口口②口 |①---|
口口口① |②---|
口口口口 |----|
口口口口 |----|
40
口口口口 |①---|
①口口③ |②---|
口②④口 |③---|
口口口口 |④---|
41
口②口③ |①---|
①口口口 |②---|
口口口口 |----|
口口口口 |③---|
42
口口口口 |①---|
口①①口 |----|
口②②口 |②---|
口口口口 |----|
43
口口口口 |①---|
①口口① |----|
②口口② |②---|
口口口口 |----|
44
口口口口 |①---|
口口口口 |----|
②口口② |②---|
口①①口 |----|
45
②口口② |①---|
口①①口 |----|
口口口口 |②---|
口口口口 |----|
46
口口口口 |①---|
①口口③ |②---|
口②④口 |③---|
口口口口 |④---|
47
口②口口 |①---|
①口口口 |②---|
口口口口 |----|
口口口口 |----|
48
口口口口 |①---|
③口口① |②---|
口④②口 |③---|
口口口口 |④---|
49
③口②口 |①---|
口口口① |②---|
口口口口 |----|
口口口口 |③---|
50
口口口口 |①---|
口①①口 |----|
口②②口 |②---|
口口口口 |----|
51
口口口口 |①---|
①口口① |----|
②口口② |②---|
口口口口 |----|
52
口口口② |①---|
口①口口 |----|
口口①③ |②---|
口口口口 |--③-|
53
口口口口 |----|
口①口② |----|
口口口口 |①---|
口口口口 |--②-|
54
①口口口 |----|
口口口口 |----|
②口口口 |①---|
口口口口 |--②-|
55
口口口口 |----|
口口口口 |----|
口口口口 |①---|
口①①口 |----|
56
②口口口 |①---|
口口①口 |----|
③①口口 |②---|
口口口口 |--③-|
57
口口口口 |----|
②口①口 |----|
口口口口 |①---|
口口口口 |--②-|
58
口口口① |----|
口口口口 |----|
口口口② |①---|
口口口口 |--②-|
59
口口口口 |----|
①口口① |①---|
口口口口 |--②-|
口②②口 |----|
60
口口口② |①---|
口①口口 |----|
口口①③ |②---|
口口口口 |--③-|
61
口口口口 |----|
口①口② |----|
口口口口 |①---|
口口口口 |--②-|
62
①口口口 |----|
口口口口 |----|
②口口口 |①---|
口口口口 |--②-|
63
口口口口 |----|
口口口口 |----|
口口口口 |①---|
口①①口 |----|
64
②口口② |①---|
口口①口 |----|
口①口口 |----|
口口口口 |--②-|
65
口口口口 |----|
②口①口 |----|
口口口口 |①---|
口口口口 |--②-|
66
口口口口 |----|
口②②口 |--①-|
口①①口 |----|
口口口口 |--②-|
67
口①①口 |----|
口口口口 |--①-|
口口口口 |----|
口口口口 |----|
68
①口口① |①---|
口口口口 |----|
口口口口 |----|
口口口口 |----|
69
口口口口 |----|
口口口口 |----|
口口口口 |----|
口口口口 |----|
70
口口口口 |①---|
①口口① |----|
口口口口 |----|
口口口口 |----|
71
口口口口 |----|
口口口口 |----|
口口口口 |----|
口口口口 |----|
72
口口口口 |①---|
③③②② |--②-|
口①口口 |----|
口①口口 |③---|
73
口口口口 |----|
②②口口 |----|
口口①口 |①---|
口口①口 |--②-|
74
口口口口 |----|
口口①① |①---|
口口口口 |----|
口口口口 |----|
75
口口口口 |①---|
③③②② |--②-|
口①口口 |----|
口①口口 |③---|
76
①①①① |--①-|
口口口口 |----|
口口口口
口口口口
77
口口口口 |----|
口口口口 |----|
口口口口 |----|
口口口口 |----|
78
口口口口 |----|
口口口口 |----|
口口口口 |----|
口口口口 |----|
79
口口口口 |①---|
口①口口 |----|
口口口口 |----|
口口口口 |----|
80
口口口口 |①---|
口口①口 |----|
口口口口 |----|
口口口口 |----|
81
口口口口 |①---|
口口口口 |----|
口口①口 |----|
口口口口 |----|
82
口口口口 |①---|
口口口口 |----|
口①口口 |----|
口口口口 |----|
83
口口口口 |①---|
口①①口 |----|
口口口口 |----|
口口口口 |----|
84
口口口口 |①---|
②口口② |----|
口①①口 |----|
口口口口 |②---|
85
口口口口 |----|
口口口口 |----|
口口口口 |----|
口口口口 |----|
86
①口口① |①---|
口口口口 |----|
②口口② |②---|
口口口口 |----|
87
口口口口 |①---|
①①口口 |----|
口口口口 |②---|
口口②② |----|
88
口口口口 |①---|
口口口① |②---|
口口②口 |③---|
口③口口 |----|
89
口口口口 |①---|
口口①① |----|
口口口口 |②---|
②②口口 |----|
90
口口口口 |①---|
①口口口 |②---|
口②口口 |③---|
口口③口 |----|
91
口口口口 |①---|
口口①① |----|
口口口口 |②---|
②②口口 |----|
92
③口口③ |①---|
①口口② |--②-|
①口口② |----|
口口口口 |③---|
93
口口口口 |----|
口口口口 |----|
口口①口 |①---|
口口口口 |----|
94
口口②口 |①---|
口①口口 |----|
口口口口 |②---|
口口口口 |----|
95
口口口口 |①---|
①①口口 |----|
口口口口 |②---|
口口②② |----|
96
口口口口 |①---|
口口口① |②---|
口口②口 |③---|
口③口口 |----|
97
口口口口 |①---|
①①口口 |----|
口口口口 |②---|
口口②② |----|
98
口②①口 |①---|
②口口① |--②-|
口口口口 |----|
口③③口 |③---|
99
口口口① |①---|
口口口口 |----|
②②口口 |②---|
口口口口 |----|
100
①口口口 |①---|
口口口口 |----|
口口②② |②---|
口口口口 |----|
101
口口口① |①---|
口口口口 |----|
口口口口 |②---|
口②②口 |----|
102
口口口口 |①---|
口②②口 |----|
口①①口 |②---|
口口口口 |----|
103
①口口口 |①---|
口口口口 |----|
口口②② |②---|
口口口口 |----|
104
口口口① |①---|
口口口口 |----|
②②口口 |②---|
口口口口 |----|
105
口口口口 |①---|
②①①② |--②-|
口③③口 |----|
口口口口 |③---|
106
②口口② |--①-|
口口口口 |----|
①口口① |②---|
口口口口 |----|
107
口口口口 |①---|
③③口口 |--②-|
口口②② |----|
①①①① |③---|
108
②②①① |--①-|
口口③③ |----|
口口口口 |②---|
口口口口 |--③-|
109
口口口口 |----|
口口口口 |①---|
①①口口 |--②-|
口口②② |----|
110
①口口② |①---|
①口口② |--②-|
③口口口 |----|
③口口口 |③---|
111
口②口口 |--①-|
口②口口 |----|
口口③① |②---|
口口③① |--③-|
112
口口②口 |----|
口口②口 |①---|
口①口口 |--②-|
口①口口 |----|
113
口①口口 |①---|
①口口口 |--②-|
③口口② |----|
口③②口 |③---|
114
口口①口 |--①-|
口②③① |----|
口③②口 |②---|
口口口口 |--③-|
115
口口口口 |----|
口口口口 |----|
口口口口 |----|
口口口口 |----|

accuracy: 100%
最終更新:2022年05月14日 18:32