アットウィキロゴ
ゆめのかなたで
かめりあ

ADVANCED

Level: 7
BPM: 217
Note: 621

1
口口口口 |----|
口口口口 |----|
口口口口 |----|
口口口口 |----|
2
口口口① |①---|
口②③口 |----|
口口口口 |----|
口口口口 |--②③|
3
口口口口 |①-②-|
口口口① |--③-|
⑤②口③ |--④-|
口④口口 |⑤---|
4
口口口口 |----|
口②①口 |----|
口口口口 |----|
口口口口 |--①②|
5
口口口口 |①-②-|
①口口口 |--③-|
③口②⑤ |--④-|
口口④口 |⑤---|
6
口口口口 |----|
口口口口 |----|
口口口口 |①---|
①口③② |--②③|
7
口口⑤口 |①-②-|
口口口④ |--③-|
口③口② |--④-|
口①口口 |⑤---|
8
口口口口 |----|
口口口口 |----|
口口口口 |----|
口口口口 |----|
9
口口口口 |----|
口口口口 |----|
口口口口 |----|
口口口口 |----|
10
①口口① |①---|
口②③口 |----|
口口口口 |----|
口口口口 |--②③|
11
口口口口 |①-②-|
口口口① |--③-|
⑤②口③ |--④-|
口④口口 |⑤---|
12
口口口口 |----|
口②①口 |----|
口口口口 |----|
口口口口 |--①②|
13
口口③口 |①-②-|
①口口口 |--③-|
④口②口 |--④-|
口⑤口口 |⑤---|
14
口口口口 |----|
口口口① |--①②|
口口口② |③---|
口口口③ |----|
15
①口口② |①---|
口口⑤口 |②---|
③口口④ |③---|
口口口口 |④-⑤-|
16
口口口口 |--①-|
口③口口 |②-③-|
口口②口 |----|
口①口口 |----|
17
②口口① |①---|
口口口口 |②---|
④口口③ |③---|
口口口口 |④---|
18
口口口口 |①---|
口口口② |--②③|
口口口③ |④---|
口①①④ |----|
19
①口口② |①---|
口口口口 |②---|
③口口④ |③---|
口口口口 |④---|
20
口口口口 |①-②-|
⑤①②⑥ |--③-|
⑤①②⑥ |④---|
③③④④ |⑤-⑥-|
21
口口口口 |----|
口口口口 |----|
口口口口 |①---|
口①①口 |----|
22
①④③① |①---|
口②⑤口 |②-③-|
口口口口 |④-⑤-|
口⑥口口 |--⑥-|
23
口口口口 |①-②-|
⑥④口⑤ |③-④-|
⑧②③⑦ |⑤-⑥-|
口口①口 |⑦-⑧-|
24
口④⑤口 |--①-|
口口③口 |②-③-|
口②口口 |④-⑤-|
口⑥①口 |--⑥-|
25
④口口③ |①-②-|
⑥②口⑤ |③-④-|
⑧口①⑦ |⑤-⑥-|
口口口口 |⑦-⑧-|
26
口④③口 |--①-|
口②⑤口 |②-③-|
口口①口 |④-⑤-|
口⑥口口 |--⑥-|
27
口口口口 |①-②-|
⑥④口⑤ |③-④-|
⑧②③⑦ |⑤-⑥-|
口口①口 |⑦-⑧-|
28
口④⑤口 |--①-|
口口③口 |②-③-|
口②口口 |④-⑤-|
口⑥①口 |--⑥-|
29
④口口③ |①-②-|
⑥②口⑤ |③-④-|
⑧口①⑦ |⑤-⑥-|
口口口口 |⑦-⑧-|
30
口口口② |①---|
口口②口 |----|
口口口口 |②---|
③①①③ |--③-|
31
口口①口 |----|
口口口① |----|
口口口口 |①---|
口②②口 |--②-|
32
口口口① |----|
口口①口 |----|
口口口口 |①---|
②口口② |--②-|
33
口⑤⑥口 |--①-|
口③④口 |②-③-|
口①②口 |④-⑤-|
口口口口 |⑥---|
34
②口口口 |①---|
口②口口 |----|
口口口口 |②---|
③①①③ |--③-|
35
口①口口 |----|
①口口口 |----|
口②②口 |①---|
口②②口 |--②-|
36
口口口口 |----|
口口口口 |----|
口口口口 |----|
口口口口 |----|
37
口口口口 |----|
①口②口 |----|
口口口口 |----|
口口口口 |①-②-|
38
①口口③ |①---|
口口口口 |②---|
口口口口 |③---|
口②④口 |④---|
39
①口③口 |①-②-|
口⑤口④ |③---|
口②口口 |----|
口口口口 |④-⑤-|
40
③口口① |①---|
口口口口 |②---|
口口口口 |③---|
口④②口 |④---|
41
口③④① |①-②-|
口⑤④口 |③---|
口⑤②口 |----|
口口口口 |④-⑤-|
42
口口口口 |①---|
口口口口 |②---|
④口口③ |③---|
②口口① |④---|
43
②口口① |①---|
④口口③ |②---|
口口口口 |③---|
口口口口 |④---|
44
⑧口⑦口 |①-②-|
口⑥口⑤ |③-④-|
④口③口 |⑤-⑥-|
口②口① |⑦-⑧-|
45
口口口口 |--①-|
口口③口 |②-③-|
口②口① |----|
④④口口 |④---|
46
③口口① |①---|
口口口口 |②---|
口口口口 |③---|
口④②口 |④---|
47
口③口① |①-②-|
④口⑤口 |③---|
口口②口 |----|
口口口口 |④-⑤-|
48
①口口③ |①---|
口口口口 |②---|
口口口口 |③---|
口②④口 |④---|
49
①④③⑤ |①-②-|
口④口⑤ |③---|
口②口口 |----|
口口口口 |④-⑤-|
50
口口口口 |①---|
口口口口 |②---|
③口口④ |③---|
①口口② |④---|
51
口①②口 |①-②-|
口③④口 |③-④-|
口⑤⑥口 |⑤-⑥-|
口⑦⑧口 |⑦-⑧-|
52
②口②口 |①---|
①口口① |----|
①口口① |②---|
口口③③ |--③-|
53
口①口① |----|
口口口口 |----|
口口口口 |①---|
口②②口 |--②-|
54
①口①口 |----|
口口口口 |----|
口口口口 |①---|
口口②② |--②-|
55
口①口① |----|
口口①口 |----|
口口口口 |①---|
口口口口 |----|
56
②口②口 |①---|
①口口① |----|
①口口① |②---|
③③口口 |--③-|
57
口①口① |----|
口口口口 |----|
口口口口 |①---|
口②②口 |--②-|
58
①口①口 |----|
口口口口 |----|
口口口口 |①---|
②②口口 |--②-|
59
口口口口 |----|
口②①口 |①---|
口①②口 |--②-|
口口口口 |----|
60
口②口② |①---|
①口口① |----|
①口口① |②---|
③③口口 |--③-|
61
①口①口 |----|
口口口口 |----|
口口口口 |①---|
口②②口 |--②-|
62
口①口① |----|
口口口口 |----|
口口口口 |①---|
②②口口 |--②-|
63
①口①口 |----|
口①口口 |----|
口口口口 |①---|
口口口口 |----|
64
口口口口 |①---|
①口口① |----|
①口口① |----|
口②②口 |--②-|
65
口①口① |----|
口口口口 |----|
②②口口 |①---|
口口口口 |--②-|
66
口口口口 |----|
②口口② |--①-|
口口①① |----|
口口口口 |--②-|
67
①①①① |----|
口口口口 |--①-|
口口口口 |----|
口口口口 |----|
68
⑤口口④ |--①-|
⑥③②口 |②-③-|
①口口口 |④---|
口口口口 |⑤-⑥-|
69
口口口口 |--①-|
口口口口 |②-③-|
口②①口 |----|
口口③口 |----|
70
④口口⑤ |--①-|
口②③⑥ |②-③-|
口口口① |④---|
口口口口 |⑤-⑥-|
71
口①②口 |--①-|
口③口口 |②-③-|
口口口口 |----|
口口口口 |----|
72
⑥口口⑤ |①-②-|
⑥口口⑤ |--③-|
②④③① |④---|
②④③① |⑤-⑥-|
73
口口口口 |----|
口口口口 |----|
①③口② |①-②-|
①③口② |--③-|
74
②口口③ |①---|
②口口③ |②-③-|
口口①口 |----|
口口①口 |----|
75
⑥口口⑤ |①-②-|
⑥口口⑤ |--③-|
②④③① |④---|
②④③① |⑤-⑥-|
76
口①②口 |--①-|
口②①口 |②---|
口口口口
口口口口
77
口口口口 |----|
口口口口 |----|
口口口口 |----|
口口口口 |----|
78
口口口口 |----|
口口口口 |----|
口口口口 |----|
口口口口 |----|
79
口口口① |①---|
口②③口 |----|
口口口口 |----|
口口口口 |--②③|
80
口口口口 |①-②-|
口口口① |--③-|
⑤②口③ |--④-|
口④口口 |⑤---|
81
口口口口 |----|
口②①口 |----|
口口口口 |----|
口口口口 |--①②|
82
口口口口 |①-②-|
①口口口 |--③-|
③口②⑤ |--④-|
口口④口 |⑤---|
83
口①①口 |①---|
口口口口 |----|
口口口口 |②---|
②口④③ |--③④|
84
口⑤⑤口 |①-②-|
④口口④ |--③-|
口③口② |--④-|
口①口口 |⑤---|
85
①口口口 |----|
口口口口 |--①-|
①口口口 |----|
口口口口 |----|
86
口口口① |①---|
口②③口 |----|
口口口① |②---|
口②③口 |③---|
87
②②②② |①---|
口⑤⑥口 |②---|
口①①口 |③---|
③口口④ |④-⑤⑥|
88
口口口口 |①-②-|
口口口① |--③-|
⑤②口③ |--④-|
口④口口 |⑤---|
89
②口口① |①---|
口⑥⑤口 |②---|
口口口口 |③---|
④口口③ |④-⑤⑥|
90
口口口口 |①-②-|
①口口口 |--③-|
③口②⑤ |--④-|
口口④口 |⑤---|
91
①口口② |①---|
③③口口 |②---|
口口口口 |③---|
口口⑤④ |--④⑤|
92
口口⑤口 |①-②-|
口口口④ |--③-|
口③口② |--④-|
口①口口 |⑤---|
93
③口口④ |①---|
口口口口 |②---|
口口口口 |③---|
①口口② |④---|
94
口口口口 |①---|
④口①③ |②---|
②口③① |③---|
口口口口 |④---|
95
①①口② |①---|
口⑤⑥口 |②---|
口口口口 |③---|
③口口④ |④-⑤⑥|
96
口口口口 |①-②-|
口口口① |--③-|
⑤②口③ |--④-|
口④口口 |⑤---|
97
②口口① |①---|
口⑥⑤口 |②---|
口口口口 |③---|
④口口③ |④-⑤⑥|
98
③③口口 |①--②|
①口口② |--③-|
④口口② |--④-|
口⑤口口 |⑤---|
99
口口口口 |①---|
口①①② |--②③|
口①①③ |④---|
⑤口口④ |⑤---|
100
①口口② |①---|
口口⑤口 |②---|
③口口④ |③---|
口口口口 |④-⑤-|
101
口口口口 |--①-|
口③口口 |②-③-|
口口②口 |----|
口①口④ |④---|
102
②口口① |①---|
口口口口 |②---|
④口口③ |③---|
口口口口 |④---|
103
口口口口 |①---|
口口口② |--②③|
口口口③ |④---|
⑤①①④ |⑤---|
104
①口口② |①---|
口口口口 |②---|
③口口④ |③---|
口口口口 |④---|
105
口口口口 |①-②-|
⑤①②⑥ |--③-|
⑤①②⑥ |④---|
③③④④ |⑤-⑥-|
106
③③③③ |--①-|
口①②口 |②---|
口②①口 |③---|
口口口口 |----|
107
口口口口 |①---|
②④⑤③ |--②-|
②④⑤③ |③---|
①①①① |④-⑤-|
108
①①②② |--①-|
口⑤口口 |②---|
口⑤口口 |③-④-|
③③④④ |--⑤-|
109
②口口③ |①---|
②口①③ |②-③-|
④口①⑤ |--④-|
④口口⑤ |⑤---|
110
口③②⑥ |①-②-|
口③②⑥ |--③-|
⑤①④口 |④---|
⑤①④口 |⑤-⑥-|
111
①③口口 |--①-|
①③口口 |②---|
⑤口④② |③-④-|
口⑤④② |--⑤-|
112
口④①③ |①---|
④口③① |②-③-|
口②口⑤ |--④-|
②口⑤口 |⑤---|
113
③口②⑥ |①-②-|
口③⑥② |--③-|
①⑤④口 |④---|
⑤①口④ |⑤-⑥-|
114
口③②口 |--①-|
①⑤⑤④ |②---|
③⑤⑤② |③-④-|
口①④口 |--⑤-|
115
口口口口 |----|
口口口口 |----|
口口口口 |----|
口口口口 |----|

accuracy: 100%
最終更新:2022年05月14日 19:02