アットウィキロゴ
ゆめのかなたで
かめりあ

EXTREME

Level: 10.6
BPM: 217
Note: 1008

1
口口口口 |----|
口口口口 |----|
口口口口 |----|
口口口口 |----|
2
⑧口①口 |①-②-|
④⑨③口 |③-④-|
口②口⑦ |⑤-⑥-|
⑥口⑤口 |⑦-⑧⑨|
3
口口①口 |①-②-|
口口口口 |--③-|
口⑤口口 |--④-|
④②口③ |⑤---|
4
③口④⑧ |①-②-|
口⑤⑨⑥ |③-④-|
①口②口 |⑤-⑥-|
口⑦口口 |⑦-⑧⑨|
5
口①口口 |①-②-|
口口口口 |--③-|
口口⑤口 |--④-|
③口②④ |⑤---|
6
口④口③ |①-②-|
⑥⑧⑦口 |③-④-|
口②⑨① |⑤-⑥-|
口⑤⑤口 |⑦-⑧⑨|
7
④⑤口③ |①-②-|
口口口① |--③-|
②口口口 |--④-|
口口口口 |⑤---|
8
⑧口⑦口 |①-②-|
口②口① |③-④-|
⑥口⑤口 |⑤-⑥-|
口④口③ |⑦-⑧-|
9
口③口口 |①-②-|
口口②④ |③---|
⑤⑦⑥① |④-⑤-|
口⑨⑧口 |⑥⑦⑧⑨|
10
口口①口 |①---|
口①口口 |----|
口口口口
口口口口

②口口口
口③口口
口口口口 |----|
口口口口 |--②③|
11
口口①口 |①-②-|
②口②⑤ |--③-|
口④①⑤ |--④-|
③④③口 |⑤---|
12
口口口口 |----|
①口口口 |----|
口②口口 |----|
口口口口 |--①②|
13
口口③口 |①-②-|
口②①② |--③-|
口口③⑤ |--④-|
④④①⑤ |⑤---|
14
②口口① |①---|
口口③口 |②-③④|
口④⑧⑨ |⑤---|
⑥⑦⑤口 |⑥⑦⑧⑨|
15
⑧②③⑨ |①-②③|
口④⑦① |④-⑤-|
⑥口口⑨ |⑥-⑦-|
口口口⑤ |⑧-⑨-|
16
口口口口 |--①-|
③口口⑦ |②-③-|
④口⑥口 |----|
②⑤①口 |④⑤⑥⑦|
17
口②③⑤ |①-②③|
口④①口 |④-⑤-|
口⑥⑩⑦ |⑥-⑦-|
口⑧口⑨ |⑧-⑨⑩|
18
口口口口 |①---|
②口③① |②-③④|
口④⑧⑨ |⑤---|
⑥⑦⑤口 |⑥⑦⑧⑨|
19
口②③口 |①-②③|
口④口① |④-⑤-|
口口口口
口口口⑤

口口口⑨
⑥口⑧⑬
⑩⑦⑫口 |⑥⑦⑧⑨|
口⑪口口 |⑩⑪⑫⑬|
20
①⑤③⑤ |①-②-|
口口口口 |--③-|
口口口口 |④---|
②⑥④⑥ |⑤-⑥-|
21
③口口口 |①---|
口①口① |----|
②口②① |②---|
②口口口 |③---|
22
口口⑤① |①-②-|
口④口③ |③-④-|
口②⑤① |⑤-⑥-|
口⑥⑦③ |--⑦-|
23
③⑤⑦口 |①-②-|
①④②口 |③-④-|
③口口口 |⑤-⑥-|
①⑥⑧口 |⑦-⑧-|
24
口⑤口① |①-②-|
口④口③ |③-④-|
口②⑤① |⑤-⑥-|
口⑥⑦③ |--⑦-|
25
口⑦⑤口 |①-②-|
③④口③ |③-④-|
①②口① |⑤-⑥-|
口⑥⑧口 |⑦-⑧-|
26
口口⑤① |①-②-|
口④口③ |③-④-|
口②⑤① |⑤-⑥-|
口⑥⑦③ |--⑦-|
27
③⑤⑦口 |①-②-|
①④②口 |③-④-|
③口口口 |⑤-⑥-|
①⑥⑧口 |⑦-⑧-|
28
口⑤口① |①-②-|
口④口③ |③-④-|
口②⑤① |⑤-⑥-|
口⑥⑦③ |--⑦-|
29
③⑤⑥④ |①-②-|
①⑦②口 |③-④-|
③口⑨⑧ |⑤-⑥-⑦-|
①口口⑩ |⑧-⑨-⑩-|
30
③口口口 |①---|
④口④① |②---|
口②口④ |③---|
①③①口 |--④-|
31
口③口② |----|
口①③口 |①---|
③口口口 |②---|
口口②口 |--③-|
32
②口口口 |----|
口③口③ |①---|
③口①口 |②---|
口②口口 |--③-|
33
⑥④口口 |--①-|
②口口口 |②-③-|
口口口① |④-⑤-|
口口③⑤ |⑥---|
34
口口①③ |①---|
口④口④ |②---|
①②口口 |③---|
④①③口 |--④-|
35
②口③口 |----|
口③①口 |①---|
口口口③ |②---|
口②③口 |--③-|
36
口口口口 |----|
口口口口 |----|
口口口口 |----|
口口口口 |----|
37
口⑦⑧口 |①-②-|
⑤口口⑥ |③-④-|
③口口④ |⑤-⑥-|
口①②口 |⑦-⑧-|
38
①口口③ |①---|
口口口口 |②---|
口口口口 |③---|
④②④② |④---|
39
①口口④ |①-②-|
口③⑥口 |③---|
口⑤②口 |④---|
口口口口 |⑤-⑥-|
40
①口口③ |①---|
口口口口 |②---|
口口口口 |③---|
④②④② |④---|
41
①口口④ |①-②-|
⑤③口口 |③---|
口口②口 |④---|
⑥口口口 |⑤-⑥-|
42
⑪⑩⑨口 |①-②-|
口⑧⑦⑥ |③④⑤-|
⑤④③口 |⑥⑦⑧-|
口②口① |⑨⑩⑪-|
43
口口口口 |--①-|
口口口口 |②-③-|
口④⑤① |④-⑤-|
⑦③⑥② |⑥-⑦-|
44
⑧⑦⑥⑨ |①-②-|
③④⑤② |③④⑤-|
①口口⑩ |⑥⑦⑧-|
口口口口 |⑨-⑩-|
45
口口口口 |--①-|
口④⑤③ |②-③-|
⑥⑦⑧⑨ |--④⑤|
口①口② |⑥⑦⑧⑨|
46
口①③口 |①---|
①口口③ |②---|
口口口口 |③---|
④②④② |④---|
47
③①④口 |①-②-|
①③⑥④ |③---|
口⑤②口 |④---|
口口口口 |⑤-⑥-|
48
口①③口 |①---|
①口口③ |②---|
口口口口 |③---|
④②④② |④---|
49
③①④⑤ |①-②-|
①③口④ |③---|
口口②口 |④---|
⑥口口口 |⑤-⑥-|
50
口③④口 |①---|
③口口④ |②---|
②口口① |③---|
口②①口 |④---|
51
③口口④ |①-②-|
⑧③④⑦ |③-④-|
⑥②①⑤ |⑤-⑥-|
②⑥⑤① |⑦-⑧-|
52
口①①③ |①---|
口②⑤口 |②---|
口⑤①③ |③-④-|
④口口② |⑤---|
53
②⑤口⑥ |①-②③|
⑤口口③ |④---|
④⑦口口 |⑤-⑥-|
口①①口 |⑦---|
54
口⑥③口 |①-②-|
口①口④ |③---|
④口①口 |④-⑤-|
口②⑤① |⑥---|
55
⑤口④口 |①-②③|
⑤③口⑦ |④---|
口口②口 |⑤-⑥-|
①⑥⑧① |⑦-⑧-|
56
③①口① |①---|
口⑤②口 |②---|
③口⑤① |③-④-|
②⑥⑥④ |⑤-⑥-|
57
⑤口④① |--①②|
②口口④ |③---|
口口⑥③ |④-⑤-|
口口口口 |⑥---|
58
口③⑥口 |①-②-|
④口①口 |③---|
口①口④ |④-⑤-|
①⑤②口 |⑥---|
59
②口口口 |①---|
③④②④ |②---|
②口口③ |③-④-|
①口④① |----|
60
③①口① |①---|
口⑤②口 |②---|
③①⑤口 |③-④-|
②口口④ |⑤---|
61
⑥口⑤② |①-②③|
③口口⑤ |④---|
口口⑦④ |⑤-⑥-|
口①①口 |⑦---|
62
口③⑥口 |①-②-|
④口①口 |③---|
口①口④ |④-⑤-|
①⑤②口 |⑥---|
63
口④口⑤ |①-②③|
⑦口③⑤ |④---|
口②口口 |⑤-⑥-|
①⑧⑥① |⑦-⑧-|
64
①口①口 |①---|
口④④口 |----|
①口①口 |--②-|
③④④② |③-④-|
65
①④口⑤ |--①②|
④口⑦② |③---|
③⑥口口 |④-⑤-|
口口⑦口 |⑥-⑦-|
66
③口口口 |--①-|
⑤口口⑥ |②-③-|
③口④② |④-⑤-|
①口⑧⑦ |⑥-⑦⑧|
67
⑨②③④ |①-②③|
⑦⑥⑤⑧ |④-⑤-|
⑧⑤⑥⑦ |⑥-⑦-|
口①口⑨ |⑧-⑨-|
68
口④口③ |---①②-|
⑥⑦口口 |③-④-|
口口⑤口 |⑤---|
①②⑧口 |⑥⑦-⑧--|
69
口口①口 |--①-|
口口口口 |②-③-|
口②口③ |----|
口口口口 |----|
70
口④口③ |---①②-|
⑥⑦口口 |③-④-|
口口⑤口 |⑤---|
①②⑧口 |⑥⑦-⑧--|
71
②口①⑥ |--①-|
口口口⑥ |②-③-|
⑤③口④ |④-⑤-|
⑤口口④ |⑥---|
72
⑤①②⑥ |①-②-|
口③④口 |--③-|
口④③口 |④---|
⑤②①⑥ |⑤-⑥-|
73
口⑤⑤口 |--①-|
①④④② |②-③-|
③⑥⑥口 |④-⑤-|
口口口口 |--⑥-|
74
③口口② |①---|
⑤④⑦⑧ |②-③-|
⑥口口⑨ |④-⑤-⑥-|
③①①② |⑦-⑧-⑨-|
75
③①②④ |①-②-|
口⑤⑥口 |--③-|
口⑥⑤口 |④---|
④②①③ |⑤-⑥-|
76
口②②口 |--①-|
②口口① |②---|
②口口①
口①①口
77
①口口② |①---|
口口口口 |②---|
口口口口 |③---|
④口口③ |④---|
78
①⑤口② |①---|
口⑨口⑥ |②-③-|
④⑧⑦口 |④-⑤-|
口口③口 |⑥⑦⑧⑨|
79
②口口口 |①---|
口③①口 |----|
口口口口 |----|
口口口口 |--②③|
80
口口①口 |①-②-|
口口口口 |--③-|
口⑤口口 |--④-|
④②口③ |⑤---|
81
口口口① |----|
口口②口 |----|
口口口口 |----|
口口口口 |--①②|
82
口①④口 |①-②-|
⑨⑤口⑧ |--③-|
⑪口⑥⑩ |④⑤⑥⑦|
③⑦②口 |⑧⑨⑩⑪|
83
口口口口 |①---|
口口①③ |----|
口口④口 |②---|
②口口① |--③④|
84
⑤③④⑤ |①-②-|
口①②口 |--③-|
⑤口口⑤ |--④-|
④②①③ |⑤---|
85
口⑤口口 |----|
口④口口 |①②③④|
口③口口 |⑤---|
口②①口 |----|
86
⑦⑥口① |①-②-|
⑧口①② |--③-|
⑨⑤③① |④-⑤-|
口③④③ |⑥⑦⑧⑨|
87
口口②② |①---|
口口②② |②---|
口口口口 |----|
①口口口 |----|
88
口①口口 |①②③④|
口③⑤⑦ |⑤⑥⑦⑧|
⑦④②①
⑧⑥⑤③

⑪口⑨口
⑩口口口
口⑪⑩口 |⑨-⑩-|
口口口口 |⑪---|
89
口口口② |①---|
⑪⑫⑨口 |②-③④|
⑦⑧⑩⑤ |⑤⑥⑦⑧|
①③④⑥ |⑨⑩⑪⑫|
90
口③①⑦ |①-②-|
口口口⑥ |③-④-|
口⑥⑦口 |⑤-⑥-|
②⑤④口 |⑦---|
91
①⑧⑦口 |①---|
⑩⑥⑤⑨ |②-③④|
④⑫⑪③ |⑤⑥⑦⑧|
②口口口 |⑨⑩⑪⑫|
92
②⑦口④ |①-②-|
⑦⑥口口 |③-④-|
⑥口口口 |⑤-⑥-|
口③①⑤ |⑦---|
93
②口⑤⑨ |①---|
口口⑥⑩ |②-③④|
口③⑦⑪ |⑤⑥⑦⑧|
①④⑧⑫ |⑨⑩⑪⑫|
94
③④④口 |①---|
②①口口 |②---|
②③口口 |③---|
①口口口 |④---|
95
口口口口 |①-②-|
③口口② |③---|
口口口口
①口口①

口口口口
口⑥口口
⑩⑦⑤④ |④⑤⑥⑦|
⑪⑨⑧口 |⑧⑨⑩⑪|
96
⑦①⑤口 |①-②-|
⑥口③④ |③-④-|
口⑦⑥口 |⑤-⑥-|
口口口② |⑦---|
97
口口口② |①---|
⑪⑫⑨口 |②-③④|
⑦⑧⑩⑤ |⑤⑥⑦⑧|
①③④⑥ |⑨⑩⑪⑫|
98
②③①④ |①--②|
口口口① |--③-|
⑤口口⑤ |--④-|
②③口④ |⑤---|
99
口口口口 |①---|
⑦①①⑧ |--②③|
⑤①①⑥ |④---|
②③④口 |⑤⑥⑦⑧|
100
①⑤②⑨ |①-②③|
口⑧③⑨ |④-⑤-|
口口④口 |⑥-⑦-|
口⑦口⑥ |⑧-⑨-|
101
口口③口 |--①-|
⑥口口⑦ |②-③-|
④①②⑤ |----|
口口口口 |④⑤⑥⑦|
102
①口⑩⑨ |①-②③|
口⑧④口 |④-⑤-|
口③口口 |⑥-⑦-|
⑤⑥②⑦ |⑧-⑨⑩|
103
口①口口 |①---|
⑦口口⑧ |--②③|
⑤口口⑥ |④---|
②③④口 |⑤⑥⑦⑧|
104
①⑤②口 |①-②③|
口口③⑫ |④-⑤-|
⑪口④⑩ |⑥⑦⑧⑨|
⑧⑨⑦⑥ |⑩⑪⑫-|
105
①④④口 |--①-|
③口②口 |②-③-|
⑤口⑦⑤ |④---|
口⑥口口 |⑤-⑥⑦|
106
④口口④ |①-②-|
口④④① |③---|
口口口口 |④---|
②口口③ |----|
107
④②③⑤ |①---|
⑤口口④ |--②-|
①③②① |③---|
口①①口 |④-⑤-|
108
口③④口 |--①-|
⑤①②口 |②---|
④口口③ |③-④-|
口②①⑤ |--⑤-|
109
②口口③ |①---|
口④⑤① |②-③-|
口③②口 |--④-|
①⑤④口 |⑤---|
110
③①②④ |①-②-|
⑤口口⑥ |--③-|
②④③① |④---|
口⑥⑤口 |⑤-⑥-|
111
③①②④ |--①-|
口口⑤口 |②---|
②④③① |③-④-|
口口口⑤ |--⑤-|
112
④⑤口口 |①---|
②③口① |②-③-|
⑤④口口 |--④-|
③②①口 |⑤---|
113
口口②① |①-②-|
⑤⑥③④ |--③-|
口口①② |④---|
⑥⑤④③ |⑤-⑥-|
114
①②④③ |--①-|
⑤口口⑥ |②---|
②①③④ |③-④-|
口⑤⑥口 |⑤-⑥-|
115
口口口口 |①---|
口①①口 |----|
口口口口 |----|
①口口① |----|

accuracy: 100%
最終更新:2022年05月15日 04:17