アットウィキロゴ
RAISE YOUR HEADS UP
GUHROOVY

BASIC

Level: 7
BPM: 230
Notes(hold): 499(11)

1
口口口口 |----|
口口口口 |----|
口口口口 |----|
口口口口 |----|
2
口口口口 |①---|
口口③① |②---|
口口④② |③---|
口口口口 |④---|
3
口口口口 |①---|
③①口口 |②---|
④②口口 |③---|
口口口口 |④---|
4
口口口口 |①---|
口口③① |②---|
口口④② |③---|
口口口口 |④---|
5
口口③口 |①---|
口①口口 |②---|
口②口口 |③---|
口口口口 |----|
6
口口口口 |①---|
④③②① |②---|
口口口口 |③---|
口口口口 |④---|
7
口口口口 |①---|
口口口口 |②---|
①②③④ |③---|
口口口口 |④---|
8
口口口口 |①---|
④③②① |②---|
口口口口 |③---|
口口口口 |④---|
9
口口③口 |①---|
口口口口 |②---|
①②口口 |③---|
口口口口 |----|
10
口口口口 |①---|
口②①① |②-③-|
口③口口 |--④-|
口口④口 |----|
11
口口口口 |①---|
口口口① |----|
口口口| |----|
口口口∧ |----|
12
口口∨口 |①---|
口口|① |----|
口口①口 |----|
口口口口 |----|
13
口口口口 |①---|
口∨口口 |----|
口|①口 |----|
口①口口 |----|
14
口口口口 |①---|
口②①① |②-③-|
口③口口 |--④-|
口①④口 |----|
15
口口口∨ |①---|
口口口| |----|
口口口① |----|
口口口口 |----|
16
口口口口 |①---|
①①②口 |②-③-|
口口③① |--④-|
口④口口 |----|
17
口口口口 |①---|
∨口口口 |----|
|口口口 |----|
①口口口 |----|
18
口口①① |①---|
口口②口 |②-③-|
口口③口 |--④-|
①④口口 |----|
19
口口口口 |①---|
①口口口 |----|
|口口口 |----|
∧口口口 |----|
20
口∨口口 |①---|
①|口口 |----|
口①口口 |----|
口口口口 |----|
21
口口口口 |①---|
口口∨口 |----|
口①|口 |----|
口口①口 |----|
22
①①口口 |①---|
口口②口 |②-③-|
口口③口 |--④-|
口④①口 |----|
23
口口口口 |①---|
①口口口 |----|
|口口口 |----|
∧口口口 |----|
24
口①①口 |①---|
①口②口 |②-③-|
口口③口 |--④-|
口④口口 |----|
25
口口口口 |①---|
口①口口 |----|
口口口口 |----|
口口口口 |----|
26
口①①口 |①---|
口口④② |②-③-|
口口⑤③ |--④-|
口口口口 |⑤---|
27
④口口口 |①-②-|
⑤③口口 |③---|
⑥②口口 |④-⑤-|
口①口口 |⑥---|
28
口口口口 |①---|
口口①① |②-③-|
口口④② |--④-|
口口⑤③ |⑤---|
29
④口口口 |①-②-|
⑤③口口 |③---|
⑥②口口 |④-⑤-|
口①口口 |⑥---|
30
口①①口 |①---|
口口口② |②-③-|
口口④③ |--④-|
口口⑤口 |⑤---|
31
④口口口 |①-②-|
⑤③口口 |③---|
⑥②口口 |④-⑤-|
口①口口 |⑥---|
32
口①①口 |①---|
口④②口 |②-③-|
口⑤③口 |--④-|
口⑥口口 |⑤-⑥-|
33
口口口口 |----|
口口口口 |----|
口口口口 |----|
口口口口 |----|
34
口口口⑤ |①-②-|
④⑥口① |③-④-|
⑧②口③ |⑤-⑥-|
口口⑦口 |⑦-⑧-|
35
口⑧③口 |①-②-|
⑥口⑦① |③-④-|
口②⑤口 |⑤-⑥-|
④口口口 |⑦-⑧-|
36
口口口⑤ |①-②-|
⑧④口③ |③-④-|
口口口⑦ |⑤-⑥-|
⑥②口① |⑦-⑧-|
37
口口⑦口 |①-②-|
口口⑥口 |③-④-|
④③⑤口 |⑤-⑥-|
口口②① |⑦---|
38
口口⑦口 |①-②-|
⑧口口③ |③-④-|
④口口① |⑤-⑥-|
⑥②口⑤ |⑦-⑧-|
39
④口口口 |①-②-|
口②⑤口 |③-④-|
⑥口⑦① |⑤-⑥-|
口⑧③口 |⑦-⑧-|
40
口②口① |①-②-|
⑥口口⑦ |③-④-|
⑧④口③ |⑤-⑥-|
口口口⑤ |⑦-⑧-|
41
口口口口 |①-②-|
口②①口 |③-④-|
口④口口 |----|
口口③口 |----|
42
④③①② |①-②-|
⑧⑦⑤⑥ |③-④-|
口口口口 |⑤-⑥-|
口口口口 |⑦-⑧-|
43
口口口口 |①-②-|
口口口口 |③-④-|
④③①② |⑤-⑥-|
⑧⑦⑤⑥ |⑦-⑧-|
44
②口①口 |①-②-|
④口③口 |③-④-|
⑥口⑤口 |⑤-⑥-|
⑧口⑦口 |⑦-⑧-|
45
口②口① |①-②-|
口④口③ |③-④-|
口⑥口⑤ |⑤-⑥-|
口口口⑦ |⑦---|
46
口②口① |①-②-|
④口③口 |③-④-|
口⑥口⑤ |⑤-⑥-|
⑧口⑦口 |⑦-⑧-|
47
⑧口⑦口 |①-②-|
⑥口⑤口 |③-④-|
④口③口 |⑤-⑥-|
口②口① |⑦-⑧-|
48
⑧口口① |①-②-|
⑥②口③ |③-④-|
口口口⑤ |⑤-⑥-|
口④⑦口 |⑦-⑧-|
49
口②口口 |①-②-|
口⑥①③ |③-④-|
口④⑤口 |⑤-⑥-|
口口⑦口 |⑦---|
50
口③②① |①-②-|
口口口口 |③---|
口⑥⑤④ |④-⑤-|
口口口口 |⑥---|
51
口口口口 |①-②-|
口③②① |③---|
口口口口 |④-⑤-|
口⑥⑤④ |⑥---|
52
口③②① |①-②-|
口口口口 |③---|
口⑥⑤④ |④-⑤-|
口口口口 |⑥---|
53
口口口口 |①-②-|
口③②① |③---|
口口口⑤ |④---|
口④口口 |⑤---|
54
①②③口 |①-②-|
口口口口 |③---|
④⑤⑥口 |④-⑤-|
口口口口 |⑥---|
55
口口口口 |①-②-|
①②③口 |③---|
口口口口 |④-⑤-|
④⑤⑥口 |⑥---|
56
①②③口 |①-②-|
口口口口 |③---|
④⑤⑥口 |④-⑤-|
口口口口 |⑥---|
57
口口口口 |①-②-|
①②③口 |③---|
⑤口口口 |④---|
口口④口 |⑤---|
58
口⑥③口 |①-②-|
②口口⑤ |③---|
口④①口 |④-⑤-|
口口口口 |⑥---|
59
⑥口③口 |①-②-|
口②⑤口 |③---|
④口①口 |④-⑤-|
口口口口 |⑥---|
60
口⑥口③ |①-②-|
②口口⑤ |③---|
口④口① |④-⑤-|
口口口口 |⑥---|
61
口口③口 |①-②-|
②⑤口口 |③---|
口口①口 |④---|
④口口口 |⑤---|
62
④口口① |①-②-|
②口⑤口 |③---|
⑥口口③ |④-⑤-|
口口口口 |⑥---|
63
口口③⑥ |①-②-|
②⑤口口 |③---|
口口①④ |④-⑤-|
口口口口 |⑥---|
64
口口口口 |①---|
口口口口 |----|
口①①口 |----|
口口口口 |----|
65
②口口② |①---|
②口口② |----|
口①①口 |--②---|
口口口口 |----|
66
口口口口 |----|
口口口口 |----|
口口口口 |----|
口口口口 |----|
67
口口口口 |①---|
口①口口 |----|
口口口口 |----|
口口口口 |----|
68
口口口口 |----|
口口口口 |----|
口口口口 |----|
口口口口 |----|
69
口口口口 |①---|
口口①口 |----|
口口口口 |----|
口口口口 |----|
70
口口口口 |----|
口口口口 |----|
口口口口 |----|
口口口口 |----|
71
口口口口 |①---|
口口口口 |----|
口①口口 |----|
口口口口 |----|
72
口口口口 |----|
口口口口 |----|
口口口口 |----|
口口口口 |----|
73
口口口口 |①---|
口口口口 |----|
口口①口 |----|
口口口口 |----|
74
口口口① |①---|
口口口口 |----|
口口口口 |----|
口口口口 |----|
75
口口口口 |①---|
口口①口 |----|
口口口口 |----|
口口口口 |----|
76
口口口口 |①---|
口口口口 |----|
口①口口 |----|
口口口口 |----|
77
口口口口 |①---|
口口口口 |----|
口口口口 |----|
①口口口 |----|
78
①口口口 |①---|
口口口口 |----|
口口口口 |----|
口口口口 |----|
79
口口口口 |①---|
口①口口 |----|
口口口口 |----|
口口口口 |----|
80
口口口口 |①---|
口口口口 |----|
口口①口 |----|
口口口口 |----|
81
口口口口 |①---|
口口口口 |----|
口口口口 |----|
口口口① |----|
82
∨口口口 |①---|
|口口口 |----|
①口口口 |----|
口口口口 |----|
83
口口口口 |----|
口口口口 |----|
口口口口 |----|
口口口口 |----|
84
口口口口 |①---|
口口口口 |----|
①口口口 |----|
口口口口 |----|
85
口口口口 |①---|
口口口口 |----|
口口口口 |----|
口口①口 |----|
86
口口口∨ |①---|
口口口| |----|
口口口① |----|
口口口口 |----|
87
口口口口 |----|
口口口口 |----|
口口口口 |----|
口口口口 |----|
88
口口口口 |①---|
口口口口 |----|
口口口① |----|
口口口口 |----|
89
口口口口 |①---|
口口口口 |----|
口口口口 |----|
口①口口 |----|
90
口口口口 |①---|
口①①口 |----|
口①①口 |----|
口口口口 |----|
91
口口口口 |----|
口口口口 |----|
口口口口 |----|
口口口口 |----|
92
口口④口 |①---|
口③口⑤ |②-③-|
口②口口 |④---|
口口口① |⑤---|
93
口④口口 |①---|
⑤口③口 |②-③-|
口口②口 |④---|
①口口口 |⑤---|
94
口口④口 |①---|
口③口⑤ |②-③-|
口②口口 |④---|
口口口① |⑤---|
95
口④口口 |①---|
⑤口③口 |②-③-|
口口②口 |④---|
①口口口 |⑤---|
96
⑤口口口 |①---|
口口口口 |②-③-|
④③②口 |④---|
口口口① |⑤---|
97
口口口⑤ |①---|
口②③④ |②-③-|
口口口口 |④---|
①口口口 |⑤---|
98
⑤口口口 |①---|
口口口口 |②-③-|
④③②口 |④---|
口口口① |⑤---|
99
口口口口 |----|
口口口口 |----|
口口口口 |----|
口口口口 |----|
100
口口④⑤ |①---|
③口口口 |②-③-|
口②口口 |④---|
口口①① |⑤---|
101
⑤④口口 |①---|
口口口③ |②-③-|
口口②口 |④---|
①①口口 |⑤---|
102
口④口⑤ |①---|
③口口口 |②-③-|
口②口口 |④---|
口口①① |⑤---|
103
口口①口 |①-②-|
⑤口②⑤ |③-④-|
口③口口 |⑤---|
口④口口 |----|
104
口口口口 |①---|
⑤口口口 |②-③-|
④③②口 |④---|
口口①① |⑤---|
105
口口口⑤ |①---|
口②③④ |②-③-|
口口口口 |④---|
①①口口 |⑤---|
106
口口口口 |①---|
⑤口口口 |②-③-|
④③②口 |④---|
口口①① |⑤---|
107
口①口口 |①-②-|
口②口口 |③-④-|
⑤口③⑤ |⑤---|
口口④口 |----|
108
①口口① |①---|
口②⑤口 |②-③-|
口③⑥口 |④---|
口④口口 |⑤-⑥-|
109
口⑤⑤口 |①---|
口口口② |②-③-|
口口口③ |④---|
口口①④ |⑤---|
110
①口口① |①---|
口⑤②口 |②-③-|
口⑥③口 |④---|
口口④口 |⑤-⑥-|
111
口口口口 |①---|
②口口口 |②-③-|
③口口口 |④---|
④①口口 |----|
112
②①②① |①---|
口②①口 |----|
②①②① |----|
口口口口 |--②-|
113
口口口口 |----|
口口口口 |--①-|
口口口口 |②---|
口②①口 |----|
114
口口口口 |①---|
①②⑤① |②-③-|
口③⑥口 |④---|
口④口口 |⑤-⑥-|
115
口③口② |①---|
口⑤口④ |②-③-|
口⑦口⑥ |④-⑤-|
口口①口 |⑥-⑦-|
116
④口口③ |①-②-|
⑥口口⑤ |③-④-|
⑧口口⑦ |⑤-⑥-|
口②口① |⑦-⑧-|
117
口口口口 |①---|
口①①口 |----|
口①①口 |----|
口口口口 |----|
最終更新:2022年04月09日 18:58