アットウィキロゴ
RAISE YOUR HEADS UP
GUHROOVY

ADVANCED

Level: 9.7
BPM : 230
Notes(hold): 647(26)

1
口口口口 |----|
口口口口 |----|
口口口口 |----|
口口口口 |----|
2
①口口③ |①---|
|口口② |--②-|
|口口④ |③---|
∧口口① |--④-|
3
口口③口 |--①-|
口口②口 |--②-|
口口④口 |③---|
口口①口 |④---|
4
口口口③ |①---|
口口口② |--②-|
口口口口 |③---|
口口口① |----|
5
口口③口 |--①-|
口口②口 |--②-|
口口④口 |③---|
口口①口 |④---|
6
口口口③ |①---|
口口口② |--②-|
口口口④ |③---|
口口口① |--④-|
7
口口③口 |--①-|
口口②口 |--②-|
口口④口 |③---|
口口①口 |④---|
8
口口口③ |①---|
口口口② |--②-|
口口口口 |③---|
口口口① |----|
9
⑤⑤④⑤ |①-②-|
口②口口 |--③-|
口③①口 |④---|
口口口口 |⑤---|
10
口口口口 |①---|
②④口口 |②-③-|
③口①口 |--④-|
口①∧口 |----|
11
口口∨口 |①---|
口口①口 |----|
口口①口 |----|
口口口口 |----|
12
口口口∨ |①---|
口口①① |----|
口口口口 |----|
口口口口 |----|
13
口口口口 |①---|
口口口① |----|
口口口① |----|
口口口∧ |----|
14
②④口口 |①---|
③口口口 |②-③-|
口①①① |--④-|
口口∧口 |----|
15
口口∨口 |①---|
口口①口 |----|
口口①口 |----|
口口口口 |----|
16
④②口∨ |①---|
口③①① |②-③-|
①口口口 |--④-|
口口口口 |----|
17
口口口口 |①---|
口口口① |----|
口口口① |----|
口口口∧ |----|
18
口口④② |①---|
口口口③ |②-③-|
口①①① |--④-|
口∧口口 |----|
19
口∨口口 |①---|
口①口口 |----|
口①口口 |----|
口口口口 |----|
20
∨口口口 |①---|
①①口口 |----|
口口口口 |----|
口口口口 |----|
21
口口口口 |①---|
①口口口 |----|
①口口口 |----|
∧口口口 |----|
22
口口④② |①---|
口口口③ |②-③-|
①①①口 |--④-|
口∧口口 |----|
23
口∨口口 |①---|
口①口口 |----|
口①口口 |----|
口口口口 |----|
24
∨口②④ |①---|
①①③口 |②-③-|
口口口① |--④-|
口口口口 |----|
25
口口口口 |①---|
①口口口 |----|
①口口口 |----|
口口口口 |----|
26
③⑥⑤④ |①---|
②口口口 |②-③-|
口口口口 |--④-|
①①①① |⑤-⑥-|
27
口口口口 |①-②-|
口③④口 |③-④-|
⑥①②⑧ |⑤-⑥-|
口⑤⑦口 |⑦-⑧-|
28
③⑥⑤④ |①---|
②口口口 |②-③-|
口口口口 |--④-|
①口口① |⑤-⑥-|
29
口口口口 |①-②-|
口③④口 |③-④-|
⑥①②⑧ |⑤-⑥-|
口⑤⑦口 |⑦-⑧-|
30
③⑥⑤④ |①---|
②口口口 |②-③-|
口口口口 |--④-|
①口口① |⑤-⑥-|
31
口口口口 |①-②-|
口③④口 |③-④-|
⑥①②⑧ |⑤-⑥-|
口⑤⑦口 |⑦-⑧-|
32
③⑥⑤④ |①---|
②口口口 |②-③-|
口口口口 |--④-|
①口口① |⑤-⑥-|
33
口口口口 |----|
口口口口 |----|
口口口口 |----|
口口口口 |----|
34
⑤口⑦口 |①-②-|
口⑥④⑧ |③-④-|
②口口① |⑤-⑥-|
②③口① |⑦-⑧-|
35
口⑦口⑤ |①-②-|
⑧口⑥口 |③-④-|
口①②口 |⑤-⑥-|
口④③口 |⑦-⑧-|
36
口⑦口⑤ |①-②-|
⑧④⑥口 |③-④-|
②口口① |⑤-⑥-|
②口③① |⑦-⑧-|
37
⑤口⑦口 |①-②-|
口⑥口⑧ |③-④-|
口②①口 |⑤-⑥-|
口③④口 |⑦-⑧-|
38
⑤口⑦口 |①-②-|
口⑥④⑧ |③-④-|
①口口② |⑤-⑥-|
①③口② |⑦-⑧-|
39
口⑦口⑤ |①-②-|
⑧口⑥口 |③-④-|
口①②口 |⑤-⑥-|
口④③口 |⑦-⑧-|
40
口⑦口⑤ |①-②-|
⑧④⑥口 |③-④-|
②口口① |⑤-⑥-|
②口③① |⑦-⑧-|
41
口口口口 |①-②-|
口口口口 |③-④-|
口②①口 |----|
口③④口 |----|
42
①⑤①⑤ |①-②-|
口②⑥口 |③-④-|
⑦口口③ |⑤-⑥-|
口④⑧口 |⑦-⑧-|
43
①⑤①⑤ |①-②-|
⑦②口口 |③-④-|
口口③⑥ |⑤-⑥-|
口④⑧口 |⑦-⑧-|
44
①⑤①⑤ |①-②-|
口口③⑥ |③-④-|
②⑦口口 |⑤-⑥-|
口④⑧口 |⑦-⑧-|
45
①⑤①⑤ |①-②-|
⑦②口口 |③-④-|
口口③⑥ |⑤-⑥-|
口④口口 |⑦---|
46
①⑤①⑤ |①-②-|
口②口⑥ |③-④-|
口⑦③口 |⑤-⑥-|
口④口⑧ |⑦-⑧-|
47
①⑤①⑤ |①-②-|
②⑨⑥口 |③-④-|
口⑩⑦③ |⑤-⑥⑦|
④口⑧口 |⑧-⑨⑩|
48
②口口口 |①-②-|
④口口⑦ |③-④-|
⑥口口⑤ |⑤-⑥-|
⑧①口③ |⑦-⑧-|
49
⑥⑦③① |①-②-|
口⑦⑤口 |③-④-|
口④口口 |⑤-⑥-|
口②口口 |⑦---|
50
口口口口 |①-②-|
⑥口口口 |③---|
①⑥⑤④ |④-⑤-|
④③②① |⑥---|
51
③⑥⑤④ |①-②-|
口③②① |③---|
口口口口 |④-⑤-|
口口口口 |⑥---|
52
口口口口 |①-②-|
⑥③②① |③---|
①⑥⑤④ |④-⑤-|
④口口口 |⑥---|
53
④⑤⑤口 |①-②-|
口口口口 |③---|
口口口口 |④---|
口③②① |⑤---|
54
④口口口 |①-②-|
口③②① |③---|
①⑥⑤④ |④-⑤-|
⑥口口口 |⑥---|
55
口口口口 |①-②-|
③口口口 |③---|
口⑥⑤④ |④-⑤-|
口③②① |⑥---|
56
④⑥⑤④ |①-②-|
口③②① |③---|
⑥口口口 |④-⑤-|
①口口口 |⑥---|
57
⑩口口口 |①②③-|
口④⑦① |④⑤⑥-|
口⑤⑧② |⑦⑧⑨-|
口⑥⑨③ |⑩---|
58
口③②① |①-②-|
④⑥⑤④ |③---|
①口口口 |④-⑤-|
⑥口口口 |⑥---|
59
③口口口 |①-②-|
口口口口 |③---|
口③②① |④-⑤-|
口⑥⑤④ |⑥---|
60
⑥口口口 |①-②-|
口⑥⑤④ |③---|
①③②① |④-⑤-|
④口口口 |⑥---|
61
口③②① |①-②-|
④⑤⑤口 |③---|
口口口口 |④---|
口④④口 |⑤---|
62
口口口口 |①-②-|
⑥口口口 |③---|
①③②① |④-⑤-|
④⑥⑤④ |⑥---|
63
③⑥⑥口 |①-②-|
口口⑤④ |③---|
口③②① |④-⑤-|
口口口口 |⑥---|
64
口口口口 |①---|
口口口口 |----|
口口口口 |----|
①①①① |----|
65
口①③口 |①---|?
③①口② |②---|?
①口②③ |③---|?
口③②口 |----|
66
口口口口 |----|
口口口口 |----|
口口口口 |----|
口口口口 |----|
67
口口口口 |①---|
口①口口 |----|
口口口口 |----|
口口口口 |----|
68
口口口口 |----|
口口口口 |----|
口口口口 |----|
口口口口 |----|
69
口口口口 |①---|
口口①口 |----|
口口口口 |----|
口口口口 |----|
70
口口口口 |----|
口口口口 |----|
口口口口 |----|
口口口口 |----|
71
口口口口 |①---|
口口口口 |----|
口①口口 |----|
口口口口 |----|
72
口口口口 |----|
口口口口 |----|
口口口口 |----|
口口口口 |----|
73
口口口口 |①---|
口口口口 |----|
口口①口 |----|
口口口口 |----|
74
①―<口 |①---|
口口口口 |----|
口口口口 |----|
口口口口 |----|
75
口口口口 |①---|
口口①口 |----|
口口口口 |----|
口口口口 |----|
76
口口口口 |----|
口口口口 |----|
口口口口 |----|
口口口口 |----|
77
①口口口 |①---|
口①口口 |----|
口口口口 |----|
口口口口 |----|
78
口>―① |①---|
口口口口 |----|
口口口口 |----|
口口口口 |----|
79
口口口口 |①---|
口口口口 |----|
口口①口 |----|
口口口口 |----|
80
口口口口 |----|
口口口口 |----|
口口口口 |----|
口口口口 |----|
81
口口口① |①---|
口口口口 |----|
口①口口 |----|
口口口口 |----|
82
①―<口 |①---|
口口口口 |----|
口口口口 |②--③|
口口①< |----|

口口口口
口口口口
口口>③
口口②口
83
口口口口 |--①-|
口口②< |②---|
口口口① |----|
口口口口 |-③--|

口口口口
口口③口
口口口口
口口口口
84
口口口① |①---|
口口口口 |----|
口口口口 |----|
口口口口 |----|
85
①口①口 |①---|
口口口口 |----|
口口口口 |----|
口口口口 |----|
86
口>―① |①---|
口口口口 |----|
口口口口 |②--③|
①口口 |----|

口口口口
口口口口
③<口口
口②口口
87
口口口口 |--①-|
②口口 |②---|
①口口口 |----|
口口口口 |-③--|

口口口口
口③口口
口口口口
口口口口
88
①口口口 |①---|
口口口口 |----|
口口口口 |----|
口口口口 |----|
89
口①口① |①---|
口口口口 |----|
口口口口 |----|
口口口口 |----|
90
口口口口 |①---|
口口口口 |----|
口口口口 |----|
①①①① |----|
91
口口口口 |----|
口口口口 |----|
口口口口 |----|
口口口口 |----|
92
⑤口口口 |①---|
③④口口 |②-③-|
口②口口 |④---|
①口口① |⑤---|
93
⑤口口口 |①---|
③④口口 |②-③-|
口②口口 |④---|
①口口口 |⑤---|
94
⑤口口口 |①---|
③④口口 |②-③-|
口②口口 |④---|
①口口口 |⑤---|
95
⑤口口口 |①---|
③④口口 |②-③-|
⑥②口⑥ |④---|
①口口口 |⑤-⑥-|
96
口口口⑤ |①---|
口口④③ |②-③-|
口口②口 |④---|
①口口① |⑤---|
97
口口口⑤ |①---|
口口④③ |②-③-|
口口②口 |④---|
口口口① |⑤---|
98
口口口⑤ |①---|
口口④③ |②-③-|
口口②口 |④---|
①口口① |⑤---|
99
①口口① |----|
口口口口 |----|
口口口口 |----|
口口口口 |①---|
100
⑤口口口 |①---|
③④口口 |②-③-|
口②④⑤ |④---|
①口②① |⑤---|
101
⑤口④⑤ |①---|
③④②① |②-③-|
口②口口 |④---|
①口口口 |⑤---|
102
⑤口口口 |①---|
③④口口 |②-③-|
口②④⑤ |④---|
①口②① |⑤---|
103
口口⑤口 |①-②-|
④⑤②① |③-④-|
口③口口 |⑤---|
①口口口 |----|
104
口口口⑤ |①---|
口口④③ |②-③-|
⑤④②口 |④---|
①②口① |⑤---|
105
⑤④口⑤ |①---|
①②④③ |②-③-|
口口②口 |④---|
口口口① |⑤---|
106
口口口⑤ |①---|
口口④③ |②-③-|
⑤④②口 |④---|
①②口① |⑤---|
107
口④④口 |①---|
①②口③ |②-③-|
口口②口 |④---|
口口口① |----|
108
⑤⑥口口 |①---|
口④口口 |②-③-|
②③⑤④ |④---|
口①①② |⑤-⑥-|
109
⑤口⑤④ |①---|
④口①② |②-③-|
②③口口 |④---|
口①口口 |⑤---|
110
⑤⑥口口 |①---|
口④口口 |②-③-|
②③⑤④ |④---|
口①①② |⑤-⑥-|
111
口口口⑤ |①---|
④口①② |②-③-|
②③口口 |④-⑤-|
口①口口 |----|
112
口口⑥⑤ |①---|
口口④口 |②-③-|
⑤④③② |④---|
①②①口 |⑤-⑥-|
113
口口口口 |①---|
①③③① |②---|
口口口口 |③---|
②口口② |----|
114
口口⑥⑤ |①---|
口口④口 |②-③-|
口口③② |④---|
口口①口 |⑤-⑥-|
115
口口口口 |①-②-|
口口口口 |③-④-|
⑦⑤⑥⑧ |⑤-⑥-|
③①②④ |⑦-⑧-|
116
⑤⑥⑦⑧ |①②③④|
①②③④ |⑤⑥⑦⑧|
⑬⑭⑮⑯ |⑨⑩⑪⑫|
⑨⑩⑪⑫ |⑬⑭⑮⑯|
117
口口口口 |①---|
①口口口 |----|
口口口口 |----|
口口口口 |----|
最終更新:2020年03月20日 18:15