アットウィキロゴ
RAISE YOUR HEADS UP
GUROOVY

Level: 10.9
BPM: 230
Notes: 1000(16)

1
口口口口 |----|
口口口口 |----|
口口口口 |----|
口口口口 |----|
2
①――< |①-②-|
口口④① |③---|
口口⑥③ |④-⑤-|
口口⑤② |⑥---|
3
口口口口 |①-②-|
④①口口 |③---|
⑥③口口 |④-⑤-|
⑤②口口 |⑥---|
4
口口口口 |①-②-|
口口④① |③---|
口口⑥③ |④-⑤-|
口口⑤② |⑥---|
5
口口口④ |①-②-|
口①口口 |③---|
口③口口 |④---|
口②口口 |----|
6
口口口口 |①-②-|
口口④① |③---|
口口⑥③ |④-⑤-|
口口⑤② |⑥---|
7
口口口口 |①-②-|
④①口口 |③---|
⑥③口口 |④-⑤-|
⑤②口口 |⑥---|
8
口口口口 |①-②-|
口口④① |③---|
口口⑥③ |④-⑤-|
口口⑤② |⑥---|
9
⑤口口③ |①-②-|
①口④口 |--③-|
口②口口 |④---|
口口口口 |⑤---|
10
口口②③ |①---|
口口口口 |②-③-|
①口④口 |--④-|
∧口口① |----|
11
口∨口口 |①---|
口①口口 |----|
①口口口 |----|
口口口口 |----|
12
口口⑧⑦ |①-②-|
口①⑥⑤ |③-④-|
口①④③ |⑤-⑥-|
口∧②① |⑦-⑧-|
13
∨口口口 |①-②-|
①口口⑤ |③-④-|
口①④③ |⑤---|
口口②① |----|
14
口口②③ |①---|
①口口口 |②-③-|
∨口④口 |--④-|
①口口① |----|
15
口∨口口 |①---|
口①口口 |----|
口口口口 |----|
①口口口 |----|
16
口口口① |①---|
口①④口 |②-③-|
口∨口口 |--④-|
口①②③ |----|
17
∨口口口 |①---|
①口口口 |----|
口口口口 |----|
口①口口 |----|
18
口口②③ |①---|
①口口口 |②-③-|
①口④口 |--④-|
∧口口① |----|
19
口①口口 |①---|
口∧口口 |----|
①口口口 |----|
口口口口 |----|
20
口①①⑤ |①---|
口口③② |②---|
口①④① |③-④-|
口∧②口 |--⑤-|
21
①口口口 |①-②-|
∧口⑤③ |③-④-|
口①口② |⑤---|
口口④① |----|
22
①口②③ |①---|
口口口口 |②-③-|
①口④口 |--④-|
∧口口① |----|
23
口∨口口 |①---|
口①口口 |----|
①口口口 |----|
口口口口 |----|
24
口口口① |①---|
口①④口 |②-③-|
口①口口 |--④-|
口∧②③ |----|
25
①口口口 |①---|
口口口口 |----|
口①口口 |----|
口口口口 |----|
26
③口口① |①---|
⑦⑥⑤口 |②-③-|
①②口④ |④-⑤-|
口口口口 |⑥-⑦-|
27
口⑧④口 |①-②-|
口⑦口③ |③-④-|
口口②口 |⑤-⑥-|
⑤①⑥口 |⑦-⑧-|
28
③口口① |①---|
⑦⑥⑤口 |②-③-|
口②口④ |④-⑤-|
口口口口 |⑥-⑦-|
29
口⑧④口 |①-②-|
口⑦口③ |③-④-|
口口②口 |⑤-⑥-|
⑤①⑥口 |⑦-⑧-|
30
③口口① |①---|
⑦⑥⑤口 |②-③-|
①②口④ |④-⑤-|
口①口口 |⑥-⑦-|
31
口⑧④口 |①-②-|
口⑦口③ |③-④-|
口口②口 |⑤-⑥-|
⑤①⑥口 |⑦-⑧-|
32
③口口① |①---|
⑦⑥⑤口 |②-③-|
①②口④ |④-⑤-|
口①口口 |⑥-⑦-|
33
口口口口 |----|
口口口口 |----|
口口口口 |----|
口口①口 |①---|
34
⑤⑦②① |①-②-|
③⑨⑧⑥ |③④⑤-|
⑧④⑦① |⑥-⑦-|
③②⑨⑤ |⑧-⑨-|
35
④⑥②口 |①-②-|
③⑧⑦⑤ |③-④-|
⑦口⑥① |⑤-⑥-|
③②⑧④ |⑦-⑧-|
36
⑤⑦②① |①-②-|
③⑨⑧⑥ |③④⑤-|
⑧④⑦① |⑥-⑦-|
③②⑨⑤ |⑧-⑨-|
37
④⑥②口 |①-②-|
③⑧⑦⑤ |③-④-|
⑦口⑥① |⑤-⑥-|
③②⑧④ |⑦-⑧-|
38
⑤⑦②① |①-②-|
③⑨⑧⑥ |③④⑤-|
⑧④⑦① |⑥-⑦-|
③②⑨⑤ |⑧-⑨-|
39
④⑥②口 |①-②-|
③⑧⑦⑤ |③-④-|
⑦口⑥① |⑤-⑥-|
③②⑧④ |⑦-⑧-|
40
⑤⑦②① |①-②-|
③⑨⑧⑥ |③④⑤-|
⑧④⑦① |⑥-⑦-|
③②⑨⑤ |⑧-⑨-|
41
⑥⑪③① |-①-②|
⑨口口⑩ |--③-④⑤⑥-|
⑬⑦⑫⑧ |⑦⑧⑨⑩|
⑤②口④ |⑪⑫⑬-|
42
⑦口口口 |①-②-|
⑥③①⑧ |③-④-|
口口口⑦ |⑤-⑥-|
⑤④②⑦ |⑦-⑧-|
43
口①①④ |①-②-|
⑥③①⑧ |③-④-|
④④⑦⑧ |⑤-⑥-|
⑤口②⑦ |⑦-⑧-|
44
①②③④ |①-②-|
⑥③①⑧ |③-④-|
⑤⑥⑦⑧ |⑤-⑥-|
⑤④②⑦ |⑦-⑧-|
45
①②③④ |①-②-|
⑦③①口 |③-④-|
⑤⑥⑧口 |⑤-⑥⑦|
口④②口 |⑧---|
46
④⑥④口 |①②③-|
⑧口⑦① |④-⑤-|
⑥⑧口② |⑥-⑦-|
⑤⑦⑤③ |⑧---|
47
⑨⑧⑦⑤ |①-②-|
⑩③⑥① |③-④-|
口⑮②⑪ |⑤---⑥⑦⑧⑨|
④⑭⑬⑫ |⑩--⑪⑫⑬⑭⑮|
48
口口口⑤ |①-②-|
⑧④⑦① |③-④-|
②口③口 |⑤-⑥-|
⑥口口口 |⑦-⑧-|
49
⑥⑦⑧⑨ |①-②-|
口口口③ |③④⑤-|
口②④① |⑥⑦⑧⑨|
口⑤⑩⑩ |⑩---|
50
⑧⑦⑥⑦ |①-②-|
①⑦⑤口 |③-④-|
②③④⑤ |⑤-⑥-|
口⑤口口 |⑦-⑧-|
51
⑧⑦⑥口 |①-②-|
①口⑤口 |③-④-|
②③④口 |⑤-⑥-|
⑥口⑧③ |⑦-⑧-|
52
⑧⑦⑥⑦ |①-②-|
①⑦⑤口 |③-④-|
②③④⑤ |⑤-⑥-|
口⑤口口 |⑦-⑧-|
53
口⑦⑥口 |①-②-|
①口⑤口 |③-④-|
②③④口 |⑤-⑥-|
③⑤⑦口 |⑦---|
54
⑧⑦⑥⑦ |①-②-|
①⑦⑤口 |③-④-|
②③④⑤ |⑤-⑥-|
口⑤口口 |⑦-⑧-|
55
⑧⑦⑥口 |①-②-|
①口⑤口 |③-④-|
②③④口 |⑤-⑥-|
⑥口⑧③ |⑦-⑧-|
56
⑧⑦⑥⑦ |①-②-|
①⑦⑤口 |③-④-|
②③④⑤ |⑤-⑥-|
口⑤口口 |⑦-⑧-|
57
口④口④ |①---|
②口口① |②---|
④口③口 |③---|
口③②① |④---|
58
口口⑤口 |①-②-|
⑤④③② |③-④-|
口⑤⑦① |⑤-⑥-|
⑦⑥⑦⑧ |⑦-⑧-|
59
③⑧口⑥ |①-②-|
口④③② |③-④-|
口⑤口① |⑤-⑥-|
口⑥⑦⑧ |⑦-⑧-|
60
口口⑤口 |①-②-|
⑤④③② |③-④-|
口⑤⑦① |⑤-⑥-|
⑦⑥⑦⑧ |⑦-⑧-|
61
③口口⑤ |①-②-|
⑥④③② |③-④-|
口⑤口① |⑤---|
⑥口口口 |⑥---|
62
⑧口④口 |①②③-|
⑨⑤口⑦ |④-⑤-|
⑩口⑥口 |⑥-⑦-|
⑪③②① |⑧⑨⑩⑪----|
63
⑧口⑧⑥ |①②③-|
口⑦④⑦ |④-⑤-|
口⑤⑧⑥ |⑥-⑦-|
口③②① |⑧---|
64
口口口口 |①---|
①口口口 |----|
①口口口 |----|
①口口口 |----|
65
口①②口 |①-------|
口②①口 |-②------|
口②①口 |--③-----|
②③③① |----|
66
口口口① |①---|
口口口口 |----|
口口口① |----|
口口口口 |----|
67
口口口口 |①---|
口口口口 |----|
口口口口 |----|
口口①口 |----|
68
口口口口 |①---|
①口口口 |----|
口口口口 |----|
①口口口 |----|
69
口口口口 |①---|
口口口口 |----|
口口口口 |----|
口①口口 |----|
70
①口口口 |①---|
口口口口 |----|
①口口口 |----|
口口口口 |----|
71
口口口口 |①---|
口口口口 |----|
口口口口 |----|
口①口口 |----|
72
口口口口 |①---|
口口口① |----|
口口口口 |----|
口口口① |----|
73
口口口口 |①---|
口口口口 |----|
口口口口 |----|
口口①口 |----|
74
口④③① |①---|
①口④② |②---|
口口③① |③---|
口口口口 |④---|
75
口口口口 |①---|
①③口口 |②---|
②④口口 |③---|
①③①口 |④---|
76
口口②口 |①---|
③口口口 |②---|
口口口① |③---|
②④①④ |④---|
77
①口口③ |①---|
口①口口 |----|
口口①口 |②---|
②口口口 |③---|
78
①③④口 |①---|
②④口① |②---|
①③口口 |③---|
口口口口 |④---|
79
口口口口 |①---|
口口③① |②---|
口口④② |③---|
口①③① |④---|
80
口②口口 |①---|
口口口③ |②---|
①口口口 |③---|
④①④② |④---|
81
②口口① |①---|
口口①口 |----|
口①口口 |②---|
③④⑤⑥ |③④⑤⑥--|
82
口④③① |①---|
①②④② |②---|
口④③① |③---|
口口口口 |④---|
83
⑤口口③ |①---|
①④口口 |②-③-|
②⑤口口 |④---|
①④①① |⑤---|
84
口口②口 |①---|
③口⑤② |②---|
⑦⑥口① |③---|
②④①④ |④⑤⑥⑦--|
85
①②②③ |①---|
口①口口 |--②-|
口口①口 |③---|
⑦⑥⑤④ |④⑤⑥⑦----|
86
①③④口 |①---|
②④②① |②---|
①③④口 |③---|
口口口口 |④---|
87
③口口⑤ |①---|
口口④① |②-③-|
口口⑤② |④---|
①①④① |⑤---|
88
口②口口 |①---|
②⑤口③ |②---|
①口⑥⑦ |③---|
④①④② |④⑤⑥⑦--|
89
④②②① |①---|
口⑤①④ |--②-|
口①口口 |③---|
⑤口④③ |④-⑤-|
90
口口口口 |①---|
口口①口 |----|
①①①① |----|
口①口口 |----|
91
口口口口 |----|
口口口口 |----|
口口口口 |----|
口口口口 |----|
92
①口⑤⑥ |①--②|
口④口② |③-④-|
①口口③ |⑤---|
口口口口 |⑥---|
93
①口⑤⑥ |①--②|
口④②口 |③-④-|
口口③口 |⑤---|
口口口口 |⑥---|
94
口口口口 |①--②|
②口口口 |③-④-|
③口④口 |⑤---|
⑥⑤口① |⑥---|
95
口口口口 |①--②|
口②口⑦ |③-④-|
口③④⑦ |⑤---|
⑥⑤口① |⑥-⑦-|
96
⑤③⑦① |①-②-|
④⑥②⑧ |③-④-|
①口口口 |⑤-⑥-|
口口口口 |⑦-⑧-|
97
口口口口 |①-②-|
口口口口 |③-④-|
⑤③⑦① |⑤-⑥-|
④⑥②⑧ |⑦-⑧-|
98
⑩④⑨⑤ |①②③④|
②⑫⑦⑪ |⑤⑥⑦⑧|
⑭⑥⑬① |⑨⑩⑪⑫|
⑧⑯③⑮ |⑬⑭⑮⑯|
99
口口口口 |----|
口口口口 |----|
口口口口 |----|
口口①口 |①---|
100
①⑦②⑤ |①-②③|
④③口⑥ |④-⑤-|
⑧④⑥① |⑥-⑦-|
⑧⑤⑨口 |⑧-⑨-|
101
①⑦②⑤ |①-②③|
④③口⑥ |④-⑤-|
⑧④口① |⑥-⑦-|
⑧⑤⑨⑥ |⑧-⑨-|
102
①⑦②⑤ |①-②③|
④③口⑥ |④-⑤-|
⑧④⑥① |⑥-⑦-|
⑧⑤⑨口 |⑧-⑨-|
103
①口②⑤ |①-②③|
④③口⑥ |④-⑤-|
口④口① |⑥---|
口⑤口⑥ |----|
104
①⑦②⑤ |①-②③|
④口③⑥ |④-⑤-|
⑧口④① |⑥-⑦-|
⑧⑤⑨⑥ |⑧-⑨-|
105
①⑦②⑤ |①-②③|
④⑥③⑥ |④-⑤-|
⑧口④① |⑥-⑦-|
⑧⑤⑨口 |⑧-⑨-|
106
①⑦②⑤ |①-②③|
④口③⑥ |④-⑤-|
⑧口④① |⑥-⑦-|
口⑤⑨⑥ |⑧-⑨-|
107
①口③口 |-①-②|
⑥⑤④口 |--③-④⑤⑥-|
口①口② |----|
②口口口 |----|
108
⑥①⑥① |①-②③|
⑨⑩⑤④ |④-⑤-|
口⑧③口 |⑥-⑦⑧|
⑩②⑦⑤ |⑨-⑩-|
109
⑥①⑥① |①-②③|
口口⑤④ |④-⑤-|
⑦口③⑦ |⑥---|
口②口⑤ |⑦---|
110
⑥①⑥① |①-②③|
④⑤⑩⑨ |④-⑤-|
口③⑧口 |⑥-⑦⑧|
⑤⑦②⑩ |⑨-⑩-|
111
⑥①口① |①-②③|
④⑤口口 |④-⑤-|
⑥③口口 |⑥---|
⑤口②口 |----|
112
口口⑥③ |①②③④|
口⑩②⑦ |⑤⑥⑦⑧|
口口⑧⑤ |----|
⑨口④① |--⑨⑩|
113
①④⑦⑦ |①②③④|
⑤口口口 |⑤⑥⑦-|
③⑥口口 |⑧---|
口②⑧⑧ |----|
114
口口口口 |①--②|
口④⑥② |③-④-|
口⑧⑦③ |⑤--⑥|
①口⑤口 |⑦-⑧-|
115
④③②① |①②③④|
⑤⑭⑬⑫ |⑤⑥⑦⑧|
⑥⑮⑯⑪ |⑨⑩⑪⑫|
⑦⑧⑨⑩ |⑬⑭⑮⑯|
116
④③②① |①②③④|
⑤⑭⑬⑫ |⑤⑥⑦⑧|
⑥⑮⑯⑪ |⑨⑩⑪⑫|
⑦⑧⑨⑩ |⑬⑭⑮⑯|
117
口口口① |①---|
口口口口 |----|
口口口口 |----|
口口口口 |----|
最終更新:2020年02月10日 03:09