アットウィキロゴ
追憶のアラウカリア
Cororo

BASIC

LEVEL: 4
BPM: 106(-212)
Notes: 451

1
口口口口 |(106)----|
口口口口 |----|
口口口口 |----|
口口口口

口口口口
口口口口
口口口口 |----|
口口口口 |----|
2
口口口口 |①---|
口口③② |②---|
口口口① |③---|
口口口口

口口口口
口口口④
口口口口 |④---|
口口口口 |----|
3
口口口口 |①---|
②③口口 |②---|
①口口口 |③---|
口口口口

口口口口
④⑤口口
口口口口 |④---|
口口口口 |⑤---|
4
口口口口 |①---|
口口③② |②---|
①口口① |③---|
口口口口

口口口口
⑤④口口
口口口口 |④---|
口口口口 |⑤---|
5
口口口口 |①---|
②③口口 |②---|
①口口① |③---|
口口口口

口口口口
口口④⑤
口口口口 |④---|
口口口口 |⑤---|
6
口①①口 |(212)①---|
口①①口 |----|
口口口口 |----|
口口口口

口口口口
口口口口
口口口口 |----|
口口口口 |----|
7
口口口口 |----|
口口口口 |----|
口口口口 |----|
口口口口

口口口口
口口口口
口口口口 |----|
口口口口 |----|
8
①口口① |①---|
①口②① |----|
口口口口 |②---|
口口口口

口③口口
口口口口
口口口口 |③---|
口口口口 |----|
9
口口口口 |①---|
口口口口 |②---|
②口③① |③---|
口口口口

口口口口
口口口口
口④口口 |④---|
口口口口 |----|
10
①口口② |①---|
口口口口 |--②-|
口口口口 |--③-|
口口口口

口口口口
口③④口
口口口口 |④---|
口口口口 |----|
11
口②①口 |①---|
口口口口 |--②-|
口口口口 |----|
口口口口

口口口口
口口口口
口口口口 |----|
口口口口 |----|
12
口口口口 |①---|
口①①口 |----|
口①①口 |----|
口口口口

口口口口
口口口口
③口口② |②---|
口口口口 |③---|
13
口口口口 |①---|
口口口③ |②---|
口②①口 |③---|
口口口口

口口口口
④口口口
口口口口 |④---|
口口口口 |----|
14
②口口① |①---|
口口口口 |--②-|
口口口口 |--③-|
口口口口

口口口口
口④③口
口口口口 |④---|
口口口口 |----|
15
口口口口 |①---|
口口口口 |--②-|
口口口口 |----|
②②①①

口口口口
口③③口
④口口④ |③---|
口口口口 |④---|
16
①口口① |①---|
口口口口 |----|
口口口口 |----|
口口口口

口口口口
口口口口
③口口② |②---|
口口口口 |③---|
17
口口口口 |①---|
口口口② |②---|
口③①口 |③---|
口口口口

口口口口
④口口口
口口口口 |④---|
口口口口 |----|
18
①口口① |①---|
口口口口 |----|
口口口口 |----|
口口口口

口口口口
口口口口
③口口② |②---|
口口口口 |③---|
19
口口口② |①---|
口③①口 |②---|
口口口口 |③---|
口口口口

④口口口
口口口口
口口口口 |④---|
口口口口 |----|
20
口①①口 |①---|
口口口口 |----|
口口口口 |----|
口口口口

口口口口
口口口口
③口口② |②---|
口口口口 |③---|
21
口口口口 |①---|
口口口② |②---|
口③①口 |③---|
口口口口

口口口口
④口口口
口口口口 |④---|
口口口口 |----|
22
①口口① |①---|
口口口口 |--②-|
②口口口 |--③-|
口口口口

口口口口
口④口口
口口⑤③ |④---|
口口口口 |⑤---|
23
①口口① |①---|
②口口口 |--②-|
口口口口 |--③-|
口口口口

口④口口
口口⑤③
口口口口 |④---|
口口口口 |⑤---|
24
口口口口 |①---|
口口口口 |--②-|
②①②① |----|
口口口口

口口口口
④③④③
口口口口 |③---|
口口口口 |④---|
25
口口口口 |①---|
口口口口 |----|
口口口口 |----|
①①①①

口口口口
口口口口
口口口口 |----|
口口口口 |----|
26
口口口口 |①---|
②①②① |--②-|
口口口口 |----|
口口口口

④③④③
口口口口
口口口口 |③---|
口口口口 |④---|
27
口口口口 |①---|
口口口口 |----|
口口口口 |----|
①①①①

口口口口
口口口口
口口口口 |----|
口口口口 |----|
28
口①口口 |①---|
口口口口 |----|
口口口口 |----|
口口口口

口口②口
口④口口
口③口口 |②---|
口口口口 |③-④-|
29
口口口口 |①---|
口口①口 |--②-|
口口口口 |--③-|
口②口口

口口口口
口口口口
口口④③ |④---|
口口口口 |----|
30
口口口口 |①---|
①③②口 |--②-|
①口口口 |--③-|
口口口口

口口口口
口口口④ |④---|
口口口④ |----|
口口口口 |----|
31
口口口口 |----|
口口口② |①---|
口口口② |②---|
口①①口

口口口口
③⑤⑤口 |③---|
③④④口 |④---|
口口口口 |⑤---|
32
①口口① |①---|
口口口口 |----|
口口口口 |----|
口口口口

口口口④
口口口口 |②---|
②口③③ |③---|
口口口口 |④---|
33
①①口口 |①---|
口口口口 |----|
口口口口 |----|
口口口口

口口口口
口口口口 |②---|
口②②口 |----|
口口口口 |----|
34
口口口口 |①---|
口①①口 |----|
口口口口 |----|
口口口口

③口口②
③口口口 |②---|
口口口口 |③---|
口④口口 |④---|
35
口口口口 |①---|
口口口① |----|
口口口① |----|
口口口口

口口口口
口口口口 |----|
口口口口 |----|
口口口口 |----|
36
①口口① |①---|
口口口口 |----|
口口口口 |----|
口口口口

口口口④
口口口口 |②---|
②口③③ |③---|
口口口口 |④---|
37
①①口口 |①---|
口口口口 |----|
口口口口 |----|
口口口口

口口口口
口口口口 |----|
口口口口 |----|
口口口口 |----|
38
①口口① |①---|
口口口口 |②---|
口③②口 |③---|
口口口口

口口口口
口④⑤口 |④---|
口口⑥口 |⑤---|
口口口口 |⑥---|
39
口口口口 |①---|
②口口① |②---|
②口口① |③---|
口③③口

口⑥⑥口
口⑤⑤口 |④---|
口④④口 |⑤---|
口口口口 |⑥---|
40
①口口① |①---|
①口口① |----|
口口口口 |----|
口口口口

口口口④
口口口口 |②---|
②口③③ |③---|
口口口口 |④---|
41
①①口口 |①---|
口口口口 |----|
口口口口 |----|
口口口口

口口口口
口口口口 |②---|
口②②口 |----|
口口口口 |----|
42
口口口口 |①---|
口①①口 |----|
口口口口 |----|
口口口口

④口口口
口口口口 |②---|
③③口② |③---|
口口口口 |④---|
43
口口①① |①---|
口口口口 |----|
口口口口 |----|
口口口口

口口口口
口④②口 |②---|
口③口口 |③---|
口口口口 |④---|
44
①口口① |①---|
口口口口 |----|
口口口口 |----|
口口口口

④口③③
口口口口 |②---|
口口口② |③---|
口口口口 |④---|
45
口口口口 |①---|
口口口口 |----|
①①口口 |----|
口口口口

口口口口
口③④口 |②---|
口口②口 |③---|
口口口口 |④---|
46
②②口① |①---|
口口口① |②---|
③口口口 |③---|
③口口口

口口口口
口⑥⑥口 |④---|
口⑤⑤口 |⑤---|
口口④④ |⑥---|
47
①口②② |①---|
①口口口 |②---|
口口口③ |③---|
口口口③

口口口口
口⑥⑥口 |④---|
口⑤⑤口 |⑤---|
④④口口 |⑥---|
48
②口①① |①---|
②口口口 |②---|
口口口口 |③---|
③③口口

口口口口
口⑥⑥口 |④---|
口⑤⑤④ |⑤---|
口口口④ |⑥---|
49
①①口② |①---|
口口口② |②---|
口口口口 |③---|
口口③③

口口口口
口⑥⑥口 |④---|
④⑤⑤口 |⑤---|
④口口口 |⑥---|
50
②②口① |①---|
口口口① |②---|
③口口口 |③---|
③口口口

口口口口
口⑥⑥口 |④---|
口⑤⑤口 |⑤---|
口口④④ |⑥---|
51
①口②② |①---|
①口口口 |②---|
口口口③ |③---|
口口口③

口口口口
口⑥⑥口 |④---|
口⑤⑤口 |⑤---|
④④口口 |⑥---|
52
②口①① |①---|
②口口口 |②---|
口口口口 |③---|
③③口口

口口口口
口⑥⑥口 |④---|
口⑤⑤④ |⑤---|
口口口④ |⑥---|
53
①①口② |①---|
口口口② |②---|
口口口口 |③---|
口口③③

口口口口
口口口口 |④---|
④⑤⑤口 |⑤---|
④口口口 |----|
54
口口①口 |①---|
口③②口 |②---|
口口口口 |③---|
口口口口

④④⑤口
口口⑥口 |④---|
口口口口 |⑤---|
口口口口 |⑥---|
55
口口口口 |①---|
口口口口 |②---|
口①口口 |③---|
口②③口

口口口口
口口口口 |④---|
口⑤④④ |⑤---|
口⑥口口 |⑥---|
56
口口口口 |①---|
口口口口 |----|
口口口口 |----|
①口口①

口口口口
③口口③ |----|
口②②口 |②---|
口口口口 |③---|
57
①②口① |①---|
口②口口 |--②-|
口口口口 |----|
口口口口

口口口口
口口④③
口口口口 |③---|
口口口口 |④---|
58
①口口① |①---|
口②口口 |--②-|
口②口口 |----|
口口口口

口口口口
口口口口
口口④③ |③---|
口口口口 |④---|
59
①口②① |①---|
口口②口 |--②-|
口口口口 |----|
口口口口

口口口口
③④口口
口口口口 |③---|
口口口口 |④---|
60
①口口① |①---|
口口②口 |--②-|
口口②口 |----|
口口口口

口口口口
口口口口
③④口口 |③---|
口口口口 |④---|
61
口口口口 |①---|
口口口口 |--②-|
口口②口 |----|
①口②①

口口口口
口口口口
③④口口 |③---|
口口口口 |④---|
62
口口口口 |①---|
口口②口 |--②-|
口口②口 |----|
①口口①

口口口口
④③口口
口口口口 |③---|
口口口口 |④---|
63
口口口口 |①---|
口口口口 |--②-|
口②口口 |----|
①②口①

口口口口
口口口口
口口④③ |③---|
口口口口 |④---|
64
口口口口 |①---|
口②口口 |--②-|
口②口口 |----|
①口口①

口口口口
口口④③
口口口口 |③---|
口口口口 |④---|
65
①②口① |①---|
口②口口 |--②-|
口口口口 |----|
口口口口

口口口口
④口③③
④口口口 |③---|
口口口口 |④---|
66
①口口① |①---|
口②口口 |--②-|
口②口口 |----|
口口口口

口口口口
④口口口
④口③③ |③---|
口口口口 |④---|
67
①口②① |①---|
口口②口 |--②-|
口口口口 |----|
口口口口

口口口口
③③口④
口口口④ |③---|
口口口口 |④---|
68
①①口① |①---|
口口口口 |----|
口口口口 |----|
口口口口

口口口口
③口口②
口③②口 |②---|
口口口口 |③---|
69
口口口口 |①---|
口口口口 |--②-|
②口口口 |----|
②口①①

④④口③
口口口③
口口口口 |③---|
口口口口 |④---|
70
口口口口 |①---|
②②口口 |--②-|
口口①① |----|
口口口口

口口③口
口口③口
口④口口 |③---|
口④口口 |④---|
71
①①口口 |①---|
口口口② |--②-|
口口口② |----|
口口口口

④④口口
口口口口
口口口口 |③---|
③③口口 |④---|
72
口口口口 |----|
①①①① |①---|
①①①① |----|
口口口口

口口口口
口口口口
口口口口 |----|
口口口口 |----|

accuracy: 100%
最終更新:2024年09月08日 16:24