アットウィキロゴ
追憶のアラウカリア
Cororo

ADVANCED

LEVEL: 7
BPM: 106(-212)
Notes: 561

1
口口口口 |(106)----|
口口口口 |----|
口口口口 |----|
口口口口

口口口口
口口口口
口口口口 |----|
口口口口 |----|
2
口口口口 |①---|
口口③② |②---|
口口口① |③---|
口口口口

口口口口
口口口④
口口口口 |④---|
口口口口 |----|
3
口口口口 |①---|
②③口口 |②---|
①口口口 |③---|
口口口口

口口口口
④⑤口口
口口口口 |④---|
口口口口 |⑤---|
4
口口口口 |①---|
口口③② |②---|
①口口① |③---|
口口口口

口口口口
⑤④口口
口口口口 |④---|
口口口口 |⑤---|
5
口口口口 |①---|
②③口口 |②---|
①口口① |③---|
口口口口

口口口口
口口④⑤
口口口口 |④---|
口口口口 |⑤---|
6
口①①口 |(212)①---|
口①①口 |----|
口口口口 |----|
口口口口

口口口口
口口口口
口口口口 |----|
口口口口 |----|
7
口口口口 |----|
口口口口 |----|
口口口口 |----|
口口口口

口口口口
口口口口
口口口口 |----|
口口口口 |----|
8
①口口① |①---|
①口②① |----|
口口口口 |②---|
口口口口

口③口口
口③口口
口口口口 |③---|
口④口口 |④---|
9
口口口口 |①---|
②口口口 |②---|
②口③① |③---|
口口口口

口⑥口口
口⑤口口
口④口口 |④-⑤-|
口口口口 |⑥---|
10
口口①口 |①---|
②口口① |--②-|
口口口口 |--③-|
口口口口

口口口口
口④③口
口口口口 |④---|
口口口口 |----|
11
口口②口 |①---|
口口口口 |--②-|
口口口口 |----|
口口①口

口口口口
口口口口
口口口口 |----|
口口口口 |----|
12
①口口① |①---|
口口口口 |----|
口口口口 |----|
口口口口

口口口口
口口口②
③口口② |②---|
口口口口 |③---|
13
口口口口 |①---|
口口口③ |②---|
口②①口 |③---|
口②口口

口口口口
④口口口
⑤口口口 |④-⑤-|
⑥口口口 |⑥---|
14
口口口口 |①---|
口②①口 |--②-|
口口口口 |--③-|
口口口口

④口口③
口口口口
口口口口 |④---|
口口口口 |----|
15
口口口口 |①---|
①口口② |--②-|
口②①口 |----|
口口口口

口③③口
口③③口
④口口④ |③---|
口口口口 |④---|
16
①口口① |①---|
口口口口 |----|
口口口口 |----|
口口口口

口口口口
口口口口
③口口② |②---|
口口口口 |③---|
17
口口口口 |①---|
口口口② |②---|
口③①口 |③---|
口口口口

口口⑤口
④④⑥口
口口口口 |④---|
口口口口 |⑤-⑥-|
18
①口口① |①---|
口口口口 |----|
口口口口 |----|
口口口口

口口口口
口口口口
③口口② |②---|
口口口口 |③---|
19
口口口② |①---|
口③①口 |②---|
口口口口 |③---|
口口口口

④口口口
④口口口
口口口口 |④---|
口口口口 |----|
20
口①①口 |①---|
口口口口 |----|
口口口口 |----|
口口口口

口口口口
口口口口
③口口② |②---|
口口口口 |③---|
21
口口口口 |①---|
口口口② |②---|
口③①口 |③---|
口口口口

口口⑤口
④④⑥口
口口口口 |④---|
口口口口 |⑤-⑥-|
22
①口口① |①---|
口口口口 |--②-|
口口口② |--③-|
口口口口

口口口口
口⑤口口
③口④口 |④---|
口口口口 |⑤---|
23
①口口① |①---|
口口口② |--②-|
口口口口 |--③-|
口口口口

口⑤口口
③口④口
口口口口 |④---|
口口口口 |⑤---|
24
口口口口 |①---|
口口口口 |--②-|
②①②① |----|
口口口口

口口口口
④③④③
口口口口 |③---|
口口口口 |④---|
25
④③②① |①-②-|
口口口口 |③-④-|
口口口口 |⑤---|
口口口⑤

口口口口
口口口口
⑥⑦⑧⑨ |⑥-⑦-|
口口口口 |⑧-⑨-|
26
口口口口 |①---|
②①②① |--②-|
口口口口 |----|
口口口口

④③④③
口口口口
口口口口 |③---|
口口口口 |④---|
27
口口口口 |①-②-|
口口口口 |③-④-|
①②③④ |⑤---|
⑤口口口

口口口口
⑨⑧⑦⑥
口口口口 |⑥-⑦-|
口口口口 |⑧-⑨-|
28
①①口口 |①---|
口口口口 |--②-|
口口口口 |----|
口口口②

口口③口
口⑤口口
口④口口 |③---|
口口口口 |④-⑤-|
29
口口口口 |①---|
口口①口 |--②-|
口口口口 |--③-|
口②口口

口口口口
口口口口
口口④④ |④---|
口口③口 |----|
30
④口口② |①---|
①③③口 |②-③-|
①口口口 |--④-|
口口口口

口⑦⑧口
口口口⑤ |⑤---|
口⑥⑥⑤ |⑥---|
口口口口 |⑦-⑧-|
31
口口口① |①---|
口②②③ |②---|
口口口③ |③---|
③②②口

口口口口
④⑥⑥口 |④---|
④⑤⑤口 |⑤---|
口口口④ |⑥---|
32
①③②① |①---|
口口口口 |--②-|
口口口口 |③---|
口口口口

口口口⑥
口口口口 |④---|
④口⑤⑤ |⑤---|
口口口口 |⑥---|
33
①①口口 |①---|
口口③② |--②-|
口口口口 |③---|
口口口口

口口口口
⑤口口口 |④---|
⑥④④口 |⑤-⑥-|
⑦口口口 |⑦---|
34
口③②口 |①---|
口①①口 |--②-|
口口口口 |③---|
口口口口

口口口④
⑤口口口 |④---|
口口口口 |⑤---|
⑥口口口 |⑥---|
35
口口口口 |①---|
口③②口 |--②-|
口口口① |③---|
口口口口

口口口口
④口口口 |④---|
④口口口 |⑤-⑥-|
口⑤⑥⑦ |⑦---|
36
①③②① |①---|
口口口口 |--②-|
口口口口 |③---|
口口口口

口口口⑥
口口口口 |④---|
④口⑤⑤ |⑤---|
口口口口 |⑥---|
37
①①口口 |①---|
口③②口 |--②-|
口口口口 |③---|
口口口口

口口口口
④口口④ |④---|
⑤口口⑤ |⑤---|
⑥口口⑥ |⑥---|
38
①口口① |①---|
口口口口 |②-③-|
⑤④②口 |④-⑤-|
口口③口

口⑦口口
口⑥⑧口 |⑥-⑦-|
口口⑨口 |⑧---|
口口口口 |⑨---|
39
①口口② |①---|
②口口① |②---|
②口口① |③---|
口③③口

口口口口
口⑤⑤口 |④---|
口④④口 |⑤---|
口口口口 |----|
40
①③②① |①---|
口口口口 |--②-|
口口口口 |③---|
口口口口

口口口⑥
口口口口 |④---|
④口⑤⑤ |⑤---|
口口口口 |⑥---|
41
①①口口 |①---|
口口③② |--②-|
口口口口 |③---|
口口口口

口口口口
⑤口口口 |④---|
⑥④④口 |⑤-⑥-|
⑦口口口 |⑦---|
42
口③②口 |①---|
口①①口 |--②-|
口口口口 |③---|
口口口口

口口口④
⑤口口口 |④---|
口口口口 |⑤---|
⑥口口口 |⑥---|
43
口口口口 |①---|
口③②口 |--②-|
口口口① |③---|
口口口口

口口口口
④口口口 |④---|
④口口口 |⑤-⑥-|
口⑤⑥⑦ |⑦---|
44
①③②① |①---|
口口口口 |--②-|
口口口口 |③---|
口口口口

口口口⑥
口口口口 |④---|
④口⑤⑤ |⑤---|
口口口口 |⑥---|
45
①①口口 |①---|
口③②口 |--②-|
口口口口 |③---|
口口口口

口口口口
④口口④ |④---|
口⑤⑤口 |⑤---|
口⑥⑥口 |⑥---|
46
②②口① |①---|
口口口口 |②-③-|
④口口③ |④---|
④口口口

口口口口
口⑦⑦口 |⑤---|
口⑥⑥口 |⑥---|
口口⑤⑤ |⑦---|
47
①口②② |①---|
①口口口 |②-③-|
③口口④ |④---|
口口口④

口口口口
口⑦⑦口 |⑤---|
口⑥⑥口 |⑥---|
⑤⑤口口 |⑦---|
48
②口①① |①---|
②口口③ |②-③-|
口口口口 |④---|
④④口口

口口口口
口⑦⑦口 |⑤---|
口⑥⑥⑤ |⑥---|
口口口⑤ |⑦---|
49
①①口② |①---|
③口口② |②-③-|
口口口口 |④---|
口口④④

口口口口
口⑦⑦口 |⑤---|
⑤⑥⑥口 |⑥---|
⑤口口口 |⑦---|
50
②②口① |①---|
口口口① |②-③-|
④口口③ |④---|
④口口口

口口口口
口⑦⑦口 |⑤---|
口⑥⑥口 |⑥---|
口口⑤⑤ |⑦---|
51
①口②② |①---|
①口口口 |②-③-|
③口口④ |④---|
口口口④

口口口口
口⑦⑦口 |⑤---|
口⑥⑥口 |⑥---|
⑤⑤口口 |⑦---|
52
②口①① |①---|
②口口③ |②-③-|
口口口口 |④---|
④④口口

口口口口
口⑦⑦口 |⑤---|
口⑥⑥⑤ |⑥---|
口口口⑤ |⑦---|
53
①①口② |①---|
③口口② |②-③-|
口口口口 |④---|
口口④④

口口口口
口口口口 |⑤---|
⑤⑥⑥口 |⑥---|
⑤口口口 |----|
54
口口①口 |①---|
口③②口 |②---|
口口口口 |③---|
口口口口

④④⑤口
口口⑥口 |④---|
口口口口 |⑤---|
口口口口 |⑥---|
55
口口口口 |①---|
口口口口 |②-③-|
③①口口 |④---|
④②④口

口口口口
口口口口 |⑤---|
口⑥⑤⑤ |⑥---|
口⑦口口 |⑦---|
56
口口口口 |①---|
口口口口 |----|
口口口口 |----|
①口口①

口口口口
③口口③ |----|
口②②口 |②---|
口口口口 |③---|
57
①②口① |①---|
口②口口 |--②-|
口口口口 |----|
口口口口

口口口口
口口④③
口口口口 |③---|
口口口口 |④---|
58
①口口① |①---|
口②口口 |--②-|
口②口口 |----|
口口口口

口口口口
口口口口
口口④③ |③---|
口口口口 |④---|
59
①口②① |①---|
口口②口 |--②-|
口口口口 |----|
口口口口

口口口口
③④口口
口口口口 |③---|
口口口口 |④---|
60
①口口① |①---|
口口②口 |--②-|
口口②口 |----|
口口口口

口口口口
口口口口
③④口口 |③---|
口口口口 |④---|
61
口口口口 |①---|
口口口口 |--②-|
口口②口 |----|
①口②①

口口口口
口口口口
③④口口 |③---|
口口口口 |④---|
62
口口口口 |①---|
口口②口 |--②-|
口口②口 |----|
①口口①

口口口口
④③口口
口口口口 |③---|
口口口口 |④---|
63
口口口口 |①---|
口口口口 |--②-|
口②口口 |----|
①②口①

口口口口
口口口口
口口④③ |③---|
口口口口 |④---|
64
口口口口 |①---|
口②口口 |--②-|
口②口口 |----|
①口口①

口口口口
口口④③
口口口口 |③---|
口口口口 |④---|
65
①③②① |①---|
口③口口 |②-③-|
口口口口 |--④-|
口口口口

口口口口
⑥口⑤⑤
⑥口④口 |⑤---|
口口口口 |⑥---|
66
①口②① |①---|
口③口口 |②-③-|
口③口口 |--④-|
口口口口

口④口口
⑥口口口
⑥口⑤⑤ |⑤---|
口口口口 |⑥---|
67
①口③① |①---|
口口③口 |②-③-|
口②口口 |--④-|
口口口口

口口口口
⑤⑤口⑥
口口口⑥ |⑤---|
口口④口 |⑥---|
68
①①口① |①---|
口口②口 |②-③-|
③口口口 |--④-|
③口口口

口口口口
⑥口口⑤
口⑥⑤口 |⑤---|
口④口口 |⑥---|
69
口口口口 |①---|
口口口口 |--②-|
②口口① |----|
②②①①

④④③③
口口口③
口口口口 |③---|
口口口口 |④---|
70
口口口口 |①---|
②②口口 |--②-|
②口①① |----|
口口口①

口口③③
口口③口
口④口口 |③---|
④④口口 |④---|
71
①①口口 |①---|
口口口② |--②-|
口口口② |----|
口口口口

④④口口
口口口口
口口口口 |③---|
③③口口 |④---|
72
口口口口 |----|
①①①① |①---|
①①①① |----|
口口口口

口口口口
口口口口
口口口口 |----|
口口口口 |----|

accuracy: 100%
最終更新:2024年09月08日 16:25