アットウィキロゴ
追憶のアラウカリア
Cororo

EXTREME

LEVEL: 9.7
BPM: 106(-212)
Notes: 753

1
口口口口 |(106)----|
口口口口 |----|
口口口口 |----|
口口口口

口口口口
口口口口
口口口口 |----|
口口口口 |----|
2
口②③④ |①---|
②⑤⑤口 |②③④---------|
①口口口 |⑤---|
口口口口

⑥口⑥口
口⑦口⑥
口⑧口口 |⑥---|
口口口口 |⑦-⑧-|
3
口②③④ |①---|
②⑤⑤口 |②③④---------|
①口口① |⑤---|
口口口口

口⑥口口
⑥口口⑦
口口⑦⑥ |⑥---|
⑦⑦口⑥ |⑦---|
4
③口①① |①-②-|
②③④⑤ |③④⑤---------|
①口口口
口口口口

⑦口⑥⑥
⑥⑧⑧⑨ |⑥---|
口口⑩⑦ |⑦---|
⑪口⑦⑫ |⑧⑨⑩-⑪-⑫-|
5
口口③③ |①-②-|
②④口③ |③-④-|
口①口⑤ |⑤-⑥-|
口口口⑤

口⑦⑦⑦
⑥口⑨⑩
口⑧⑪口 |⑦-⑧-|
⑫口口⑬ |⑨⑩⑪-⑫-⑬-|
6
①①①① |(212)①---|
口口口口 |----|
口口口口 |----|
口口口口

口口口口
口口口口
口口口口 |----|
口口口口 |----|
7
口口口口 |----|
口口口口 |----|
口口口口 |----|
口口口口

口口口口
口口口口
口口口口 |----|
口口口口 |----|
8
⑤口①① |①-②-|
口⑥①口 |③-④-|
②口口口 |⑤-⑥-|
口③④④

口⑦口口
口口口口
口口口口 |⑦---|
⑧口口口 |⑧---|
9
口口口口 |①---|
②口口① |②---|
口口口① |③---|
口口③③

口口口④
口⑤⑥口
口⑦口⑧ |④-⑤-⑥-|
口⑨口口 |⑦-⑧-⑨-|
10
③口①口 |①-②-|
②口口① |③-④-|
⑤口口口 |⑤-⑥-|
⑥口口④

口口口口
口口口口
口⑦⑧口 |⑦-⑧-⑨-|
口⑨⑩口 |⑩---|
11
②①口① |①---|
①④①② |--②-|
②口口③ |③-④-|
口口口②

口口口口
口口口口
口⑧⑦口 |⑤-⑥-|
口⑥⑤口 |⑦-⑧-|
12
口⑤①① |①-②-|
口⑥①④ |③-④-|
②口口口 |⑤-⑥-|
③口口④

口口口口
口口口口
口口口⑦ |⑦---|
口⑧口口 |⑧---|
13
①口①口 |①---|
②口③口 |②---|
口口③口 |③---|
口口口口

口口口④
口⑤口口
口⑦口⑥ |④-⑤-⑥-|
口⑨⑧口 |⑦-⑧-⑨-|
14
③口①口 |①-②-|
②口口① |③-④-|
⑤口口口 |⑤-⑥-|
⑥口口④

口口口口
口口口口
口⑦⑧口 |⑦-⑧-⑨-|
口⑨⑩口 |⑩---|
15
口③③① |①---|
②③①① |②-③-|
口口口口 |--④-|
口④口口

口口口口
口口口口
⑤⑤⑤⑤ |⑤---|
⑦口口⑥ |⑥-⑦-|
16
①口口① |①---|
①口口① |----|
口口口口 |----|
口口口口

口口⑤⑤
口口④口
③口口② |②-③-|
口口口口 |④-⑤-|
17
②口口口 |①-②-|
①口口③ |③---|
口口口口 |④---|
口④口口

口⑤口口
口⑤⑥口
口⑦口口 |⑤---|
口口⑧口 |⑥-⑦-⑧-|
18
①口口① |①---|
口口口口 |----|
口口口口 |----|
口口口口

口口⑤⑤
口口④口
③口口② |②-③-|
口口口口 |④-⑤-|
19
②口口口 |①-②-|
①口口③ |③---|
口口口口 |④---|
④口口口

口⑤口口
口⑤⑥口
口⑦口口 |⑤---|
口口⑧口 |⑥-⑦-⑧-|
20
①口口① |①---|
①口口① |----|
口口口口 |----|
口口口口

口口⑤⑤
口口④口
③口口② |②-③-|
口口口口 |④-⑤-|
21
②口口口 |①-②-|
①口口③ |③---|
口口口口 |④---|
④口口口

口⑤口口
口⑤⑥口
口⑦口口 |⑤---|
口口⑧口 |⑥-⑦-⑧-|
22
①⑤口① |①-②-|
④口口口 |③-④-|
④口③② |--⑤-|
口口口口

口口口口
口⑦⑥口
口口口口 |⑥-⑦-⑧-|
口⑨⑧口 |⑨---|
23
①口⑤① |①-②-|
口口口④ |③-④-|
②③④口 |--⑤-|
口口口口

⑦⑦口口
口口口口
口口口口 |⑥---|
⑥⑥口口 |⑦---|
24
口口口口 |①---|
口口口口 |--②-|
②①②① |----|
口口口口

④口口口
④口口口
口口口口 |③---|
口③③口 |④---|
25
口⑨⑤① |①②③④|
口⑩⑥② |⑤⑥⑦⑧|
口⑪⑦③ |⑨⑩⑪-|
口口⑧④

⑬口口⑭
口口口口
口口口口 |⑫-⑬-|
⑫口口⑮ |⑭-⑮-|
26
口口①口 |①---|
②口②口 |--②-|
①口口口 |----|
口口口口

口口口④
口口口④
口口口口 |③---|
口③③口 |④---|
27
①⑤⑨口 |①②③④|
②⑥⑩口 |⑤⑥⑦⑧|
③⑦⑪口 |⑨⑩⑪-|
④⑧口口

⑭口口⑬
口口口口
口口口口 |⑫-⑬-|
⑮口口⑫ |⑭-⑮-|
28
口口口口 |①---|
②口口① |--②-|
②口口① |----|
口口口口

口口⑤口
口口④口
口口口口 |③---|
口口③口 |④-⑤-|
29
口口口① |①---|
口口口口 |--②-|
口口口口 |--③-|
口②③口

口口⑥口
口口口口
口④⑤口 |④---|
④口口口 |⑤-⑥-|
30
④口口② |①---|
①③③口 |②-③-|
①口口口 |--④-|
口口口口

口口⑦⑦
⑧口口⑤ |⑤---|
⑧⑥⑥口 |⑥---|
口口⑤口 |⑦-⑧-|
31
口口口口 |①---|
口②②③ |②---|
口口口① |③---|
③②②①

口⑤④口
口⑥⑥口 |④---|
口④⑤口 |⑤---|
口口口口 |⑥---|
32
①口②① |①---|
③口口口 |--②-|
口口口口 |--③-|
口口口口

⑥口口口
口⑦口口 |④---|
⑧④⑤⑤ |⑤---|
口口口口 |⑥-⑦-⑧-|
33
口③②口 |①---|
口口口④ |②-③-|
口口口⑤ |④⑤⑥-|
口①口⑥

口口口⑬
口⑦⑫口 |⑦---|
⑩⑪⑦口 |⑧-⑨-⑩-|
⑧⑨口口 |⑪-⑫-⑬-|
34
①⑤口口 |①---|
①⑥口④ |②-③-④-|
口⑦口③ |⑤-⑥-⑦-|
口口口②

⑪口⑭⑭
⑫口⑩口 |⑧-⑨-⑩-|
⑬口⑨口 |⑪-⑫-⑬-|
口口⑧口 |⑭---|
35
口口口口 |①---|
口②③口 |--②-|
口口口① |③---|
口口口口

口口口口
④口口口 |④---|
④口口口 |⑤-⑥-|
口⑤⑥⑦ |⑦---|
36
①③②① |①---|
口口口口 |--②-|
口口口口 |③---|
口口口口

口⑧⑦⑥
口口口口 |④---|
④口⑤⑤ |⑤---|
口口口口 |⑥-⑦-⑧-|
37
①口口口 |①---|
口③②口 |--②-|
口口口口 |③---|
口口口口

⑤⑤口口
口口口口 |④---|
⑧口口口 |⑤---|
⑥⑦④④ |⑥-⑦-⑧-|
38
口口⑤② |①---|
口口⑥③ |②-③-④-|
口①⑦④ |⑤-⑥-⑦-|
口口口口

⑪⑧口口
口⑨口口 |⑧-⑨-⑩-|
⑬⑩口口 |⑪---|
口口口⑫ |⑫-⑬-|
39
口口口口 |①---|
口口①① |②---|
口③③③ |③---|
②②②口

口④④④
⑤⑤⑥⑥ |④---|
口口口口 |⑤---|
⑥口口⑤ |⑥---|
40
①③②口 |①---|
口口口口 |--②-|
口口口口 |③---|
口①①口

口⑧口口
口口口口 |④---|
④口⑤⑤ |⑤---|
口口⑦⑥ |⑥-⑦-⑧-|
41
①口口口 |①---|
④⑤⑥③ |②-③-|
口口口口 |④⑤⑥-|
②口口口

口口口口
⑬口口口 |⑦---|
⑫⑪⑩口 |⑧-⑨-⑩-|
口⑦⑨⑧ |⑪-⑫-⑬-|
42
口③②① |①---|
口口口口 |--②-|
口口口口 |③---|
口口口口

口口口口
口口口口 |④---|
⑤⑥④口 |⑤-⑥-⑦-|
⑦⑧口口 |⑧---|
43
口口口口 |①---|
口②③口 |--②-|
口口口① |③---|
口口口口

口口口⑩
④口口⑨ |④---|
④口口⑧ |⑤-⑥-|
口⑥⑤⑦ |⑦⑧⑨⑩|
44
①口口口 |①---|
口②③口 |--②-|
口①口口 |③---|
口口口口

⑥口⑧⑦
④口口口 |④-⑤-|
④⑥口口 |⑥---|
口⑨口⑤ |⑦-⑧-⑨-|
45
口口口口 |①---|
口③②口 |②-③-|
口口口口 |④---|
①口口④

口口口⑥
⑤口口⑤ |⑤---|
口口⑧⑦ |⑥---|
⑥口口⑨ |⑦-⑧-⑨-|
46
②②口口 |①---|
口③③口 |②---|
口口口口 |③---|
口口①口

口口口④
口口口口 |④---|
⑤⑥口④ |⑤-⑥-⑦-|
⑦⑧口口 |⑧---|
47
①口②② |①---|
①口口口 |②---|
口③③口 |③---|
口口口口

口口⑧⑦
口口⑥⑤ |④---|
口口口口 |⑤-⑥-⑦-|
④④口口 |⑧---|
48
②②口口 |①---|
口口口口 |②-③-|
口口①③ |④---|
④④①口

口口口口
⑧⑨口⑤ |⑤---|
⑥⑦口口 |⑥-⑦-⑧-|
口口口⑤ |⑨---|
49
②②口口 |①---|
口口口③ |②-③-|
口口①① |④---|
口④④口

口口口口
⑥⑦口口 |⑤---|
⑤⑧⑨⑩ |⑥-⑦-⑧-|
⑤口口⑪ |⑨-⑩-⑪-|
50
②②①口 |①---|
口④④口 |②-③-|
口口口口 |④---|
口口③口

口口口⑤
口口口口 |⑤---|
⑥⑦口⑤ |⑥-⑦-⑧-|
⑧⑨口口 |⑨---|
51
①③②② |①---|
①口口口 |②-③-|
口④④口 |④---|
口口口口

口口⑨⑧
口口⑦⑥ |⑤---|
口口口口 |⑥-⑦-⑧-|
⑤⑤口口 |⑨---|
52
②②口口 |①---|
口口口口 |②-③-|
口口①③ |④---|
④④①口

口口口口
⑧⑨口⑤ |⑤---|
⑥⑦口口 |⑥-⑦-⑧-|
口口口⑤ |⑨---|
53
②②口口 |①---|
口口口③ |②-③-|
口口①① |④---|
口④④口

口口口口
口⑨⑧口 |⑤---|
⑤⑦⑥口 |⑥-⑦-⑧-|
⑤口口口 |⑨---|
54
口口口① |①---|
口口口口 |②---|
口口口② |③---|
③口口口

④④口⑤
口⑧⑥口 |④---|
口⑦⑨口 |⑤-⑥-⑦-|
口口口⑩ |⑧-⑨-⑩-|
55
口口②口 |①---|
③口口口 |②-③-④-|
口口口④ |⑤---|
①⑤口口

口口口⑥
口⑧口口 |⑥-⑦-|
⑩口⑦口 |⑧---|
口口口⑨ |⑨-⑩-|
56
口①①口 |①---|
口口口口 |----|
口口口口 |----|
口①①口

③口口口
③口口口 |----|
口口口② |②---|
口口口② |③---|
57
口口①① |①---|
口②口口 |--②-|
口口口口 |----|
口口口口

口口口口
口口口口
④口口口 |③---|
口③口口 |④---|
58
口口口口 |①---|
口口①口 |②-③-|
口④③② |④---|
口口口口

口口口⑤
⑥⑦口口
口口口口 |⑤---|
口口口口 |⑥-⑦-|
59
口口口口 |①---|
口口①口 |--②-|
口口口口 |----|
②口口口

③口口④
口口口口
口口口口 |③---|
口口口口 |④---|
60
口口口口 |①---|
口口口口 |②---|
口③①口 |③---|
②口口口

口④⑤口
口口⑥口
口口口口 |④---|
口口口口 |⑤-⑥-|
61
①口口① |①---|
口②口口 |--②-|
②口①口 |----|
口口口口

口口口口
③口口口
口③口口 |③---|
口口④④ |④---|
62
口①①口 |①---|
口口口④ |②-③-|
③口口口 |④---|
口②口口

⑤口口口
⑥⑦⑧口
口口⑨⑩ |⑤-⑥-⑦-|
口口口口 |⑧-⑨-⑩-|
63
③口口② |①---|
口口口口 |--②-|
口口口口 |--③-|
①口口口

口口④口
口⑤口口
口口⑥口 |④-⑤-⑥-|
口⑦口口 |⑦---|
64
口①口口 |①---|
②口口口 |②-③-|
口①口③ |----|
口口③口

④口口⑧
口口⑦口
口⑥口口 |④---|
⑤口口口 |⑤⑥⑦⑧|
65
口①②口 |①---|
①口口② |--②-|
口口口口 |----|
口口口口

③口口④
口口口口
③口口④ |③---|
口口口口 |④---|
66
口口③口 |①---|
②口口③ |②---|
口口口口 |③---|
②①①口

口口口④
口⑦⑤口
口⑥⑧口 |④-⑤-⑥-|
口口口⑨ |⑦-⑧-⑨-|
67
②②口口 |①---|
口口口③ |--②-|
口口口③ |--③-|
①口口口

口口口口
口口口口
口④⑤口 |④-⑤-⑥-|
口⑥⑦口 |⑦---|
68
③③①① |①---|
口口口口 |②-③-|
②口④口 |--④-|
口口口口

口口口口
⑥⑥⑤⑤
口口口口 |⑤---|
口口口口 |⑥---|
69
口口口口 |①---|
口口口口 |--②-|
②口口① |----|
②口口①

④口口③
口口口口
口口口口 |③---|
口口口口 |④---|
70
口口口口 |①---|
口口口口 |--②-|
②②①① |----|
②口口①

④口口③
口口口口
口口口口 |③---|
口口口口 |④---|
71
口口口口 |①---|
口口口口 |--②-|
②②①① |----|
②②①①

④④③③
口口口口
口口口口 |③---|
口口口口 |④---|
72
口口口口 |----|
①①①① |①---|
①①①① |----|
口口口口

口口口口
口口口口
口口口口 |----|
口口口口 |----|

accuracy: 100%
最終更新:2024年09月08日 17:54