アットウィキロゴ
Right Time Right Way
KAN TAKAHIKO

BASIC

Level: 5
BPM: 174
Notes: 299

1
口口口口 |----|
口口口口 |----|
口口口口 |----|
口口口口 |----|
2
口口口口 |①---|
口②②口 |--②-|
口口口口 |----|
①口口口 |----|
3
口口口口 |①---|
口②②口 |--②-|
口口口口 |----|
口①口口 |----|
4
口口口口 |①---|
口②②口 |--②-|
口口口口 |----|
口口①口 |----|
5
口口口口 |①---|
口②②口 |--②-|
口口口口 |----|
口口口① |----|
6
口②②口 |①---|
口口口口 |--②-|
①口口口 |----|
口口口口 |----|
7
口②②口 |①---|
口口口口 |--②-|
口①口口 |----|
口口口口 |----|
8
口②②口 |①---|
口口口口 |--②-|
口口①口 |----|
口口口口 |----|
9
口②②口 |①---|
口口口口 |--②-|
口口口① |----|
口口口口 |----|
10
②②口口 |①---|
①口口① |②---|
口口口口 |----|
③③口口 |③---|
11
口口①① |----|
口口口口 |①---|
口口口口 |----|
口口②② |②---|
12
①①口口 |----|
口口口口 |①---|
口口口口 |----|
②②口口 |②---|
13
口口①① |----|
口口口口 |①---|
口口口口 |----|
口口②② |②---|
14
②②口口 |①---|
口口③口 |②---|
口①口口 |③---|
④④口口 |④---|
15
口口②② |①---|
口③口口 |②---|
口口①口 |③---|
口口④④ |④---|
16
②②口口 |①---|
口口③口 |②---|
口①口口 |③---|
④④口口 |④---|
17
口口②② |①---|
口③口口 |②---|
口口①口 |③---|
口口④④ |④---|
18
①口口① |①---|
口口口口 |----|
口口口口 |----|
口口口口 |----|
19
口口口口 |①---|
①口口① |----|
口口口口 |----|
口口口口 |----|
20
口口口口 |①---|
口口口口 |----|
①口口① |----|
口口口口 |----|
21
口口口口 |①---|
口口口口 |----|
口口口口 |----|
①口口① |----|
22
口口口口 |①---|
口口口口 |----|
口口口口 |----|
口①①口 |----|
23
口口口口 |①---|
口口口口 |----|
口①①口 |----|
口口口口 |----|
24
口口口口 |①---|
口①①口 |----|
口口口口 |----|
口口口口 |----|
25
口①①口 |①---|
口口口口 |----|
口口口口 |----|
口口口口 |----|
26
口③③口 |①---|
口口②口 |--②-|
口①口口 |----|
口口口口 |③---|
27
口口口口 |----|
口口口口 |----|
口口口口 |----|
口口口口 |----|
28
口口③③ |①---|
口②口口 |--②-|
口口①口 |----|
口口口口 |③---|
29
口口口口 |----|
口口口口 |----|
口口口口 |----|
口口口口 |----|
30
③③口口 |①---|
口口②口 |--②-|
口①口口 |----|
口口口口 |③---|
31
口口口口 |----|
口口口口 |----|
口口口口 |----|
口口口口 |----|
32
口口口口 |①---|
口口口② |----|
口①①口 |②---|
口口口口 |----|
33
口口口口 |①---|
①口口② |----|
口口口口 |②---|
口口口口 |----|
34
口①①口 |①---|
口②②口 |----|
口口口口 |②---|
口口口口 |----|
35
口口口口 |①---|
口口口口 |----|
②①①② |②---|
口口口口 |----|
36
②口口③ |①---|
②①①③ |②---|
口口口口 |----|
口口口口 |③---|
37
①口口口 |----|
①口口口 |①---|
口②口口 |②---|
口③口口 |③---|
38
③口口② |①---|
③①①② |②---|
口口口口 |----|
口口口口 |③---|
39
口口口① |----|
口口口① |①---|
口口②口 |②---|
口口③口 |③---|
40
②口口③ |①---|
②①①③ |②---|
口口口口 |----|
口口口口 |③---|
41
①口口口 |----|
①口口口 |①---|
口②口口 |②---|
口③口口 |③---|
42
③口口② |①---|
③①①② |②---|
口口口口 |----|
口口口口 |③---|
43
口口口① |----|
口口口① |①---|
口口②口 |②---|
口口③口 |③---|
44
②③③④ |①---|
②口①④ |②---|
口①口口 |③---|
口口口口 |④---|
45
②口口口 |①---|
②①①口 |②---|
口③口口 |③---|
口④口口 |④---|
46
④③③② |①---|
④①口② |②---|
口口①口 |③---|
口口口口 |④---|
47
口口口② |①---|
口①①② |②---|
口口③口 |③---|
口口④口 |④---|
48
②③③④ |①---|
②口①④ |②---|
口①口口 |③---|
口口口口 |④---|
49
②口口口 |①---|
②①①口 |②---|
口③口口 |③---|
口④口口 |④---|
50
④③③② |①---|
④①口② |②---|
口口①口 |③---|
口口口口 |④---|
51
口口口② |①---|
口①①② |②---|
口口③口 |③---|
口口④口 |④---|
52
口口口口 |①---|
①口口① |----|
口口口口 |----|
口口口口 |----|
53
口口口口 |----|
口口口口 |----|
口口口口 |----|
口口口口 |----|
54
口口口口 |----|
口口口口 |----|
口口口口 |----|
口口口口 |----|
55
口口口口 |----|
口口口口 |----|
口口口口 |----|
口口口口 |----|
56
口口口口 |①---|
①口口口 |----|
口口口口 |②---|
口②口口 |----|
57
口口口口 |①---|
口口口① |----|
口口口口 |②---|
口口②口 |----|
58
口口口口 |①---|
①②③④ |②---|
口口口口 |③---|
口口口口 |④---|
59
口口口口 |①---|
口口口口 |----|
口①①口 |----|
口①①口 |----|
60
口②口口 |①---|
口口②口 |----|
①口口口 |②---|
①口口口 |----|
61
口口口① |①---|
口口口① |----|
口②口口 |②---|
口口②口 |----|
62
口口②口 |①---|
口②口口 |----|
口口口① |②---|
口口口① |----|
63
①口口口 |①---|
①口口口 |----|
口口②口 |②---|
口②口口 |----|
64
口②口口 |①---|
口口②口 |----|
①口口口 |②---|
①口口口 |----|
65
口口口① |①---|
口口口① |----|
口②口口 |②---|
口口②口 |----|
66
口口口口 |①---|
口口③口 |--②-|
②口③① |----|
②口口① |③---|
67
②口口② |--①-|
口①口口 |----|
口①口口 |②---|
口口口口 |----|
68
口口口口 |①-②-|
口②①⑤ |③-④-|
口④③⑤ |----|
口口口口 |⑤---|
69
口①口口 |①---|
①口口口 |----|
口口口② |②---|
口口②口 |----|
70
口口口口 |①-②-|
⑤①②口 |③-④-|
⑤③④口 |----|
口口口口 |⑤---|
71
口口①口 |①---|
口口口① |----|
②口口口 |②---|
口②口口 |----|
72
口口口口 |①-②-|
⑤①②口 |③-④-|
⑤③④口 |----|
口口口口 |⑤---|
73
口口①口 |①---|
口口口① |----|
②口口口 |②---|
口②口口 |----|
74
口口口口 |①-②-|
口②①⑤ |③-④-|
口④③⑤ |----|
口口口口 |⑤---|
75
口①口口 |①---|
①口口口 |----|
口口口② |②---|
口口②口 |----|
76
⑤口口⑤ |①-②-|
口②③口 |③-④-|
口①④口 |--⑤-|
⑥口口⑥ |--⑥-|

accuracy: 100%
最終更新:2022年05月04日 16:41