アットウィキロゴ
Right Time Right Way
KAN TAKAHIKO

ADVANCED

Level: 7
BPM: 174
Notes: 424

1
口口口口 |----|
口口口口 |----|
口口口口 |----|
口口口口 |----|
2
②口口口 |①---|
口口口口 |--②-|
③口口口 |--③-|
①①口口 |----|
3
口口口② |①---|
口口口口 |--②-|
口口口③ |--③-|
口口口① |----|
4
口②口口 |①---|
口口口口 |--②-|
口③口口 |--③-|
口①口口 |----|
5
口口②口 |①---|
口口口口 |--②-|
口口③口 |--③-|
口口①口 |----|
6
②口口口 |①---|
口口口口 |--②-|
③口口口 |--③-|
①口口口 |----|
7
口口口② |①---|
口口口口 |--②-|
口口口③ |--③-|
口口口① |----|
8
口②口口 |①---|
口口口口 |--②-|
口③口口 |--③-|
口①口口 |----|
9
口口②口 |①---|
口口口口 |--②-|
口口③口 |--③-|
口口①口 |----|
10
③口口口 |①---|
口②口口 |②-③-|
④⑤口口 |--④-|
①①口口 |⑤---|
11
口口口③ |①---|
口口②口 |②-③-|
口口⑤④ |--④-|
口口口① |⑤---|
12
口③口口 |①---|
②口口口 |②-③-|
⑤④口口 |--④-|
口①口口 |⑤---|
13
口口③口 |①---|
口口口② |②-③-|
口口④⑤ |--④-|
口口①口 |⑤---|
14
③口口口 |①---|
口②口口 |②-③-|
④⑤口口 |--④-|
①口口口 |⑤---|
15
口口口③ |①---|
口口②口 |②-③-|
口口⑤④ |--④-|
口口口① |⑤---|
16
口③口口 |①---|
②口口口 |②-③-|
⑤④口口 |--④-|
口①口口 |⑤---|
17
口口③口 |①---|
口口口② |②-③-|
口口④⑤ |--④-|
口口①口 |⑤---|
18
口①口口 |①---|
①③②口 |----|
口口口口 |----|
口口口口 |②-③-|
19
口口口口 |--①-|
②口口口 |--②-|
口口口口 |--③-|
③口①口 |----|
20
口口口口 |①---|
②口口① |--②-|
口口口口
口口口口

口口口口
口口口③
口口口口 |----|
口口口口 |③---|
21
口口口口 |--①-|
①口口口 |----|
口口口口 |②---|
口②②口 |----|
22
口①②口 |①---|
①③④② |--②-|
口口口口 |----|
口口口口 |③-④-|
23
口口口口 |--①-|
口口口② |--②-|
口口口口 |--③-|
口①口③ |----|
24
口口口口 |①---|
①口口② |--②-|
①口口②
口口口口

③口口口
③口口口
口口口口 |----|
口口口口 |③---|
25
口②②① |--①-|
口口口① |----|
口口口口 |②---|
口口口口 |----|
26
口口口口 |①---|
②②②② |--②-|
①①①① |----|
③③③③ |③---|
27
口口口口 |----|
口口口口 |----|
口口口口 |----|
口口口口 |----|
28
③③③③ |①---|
②②②② |--②-|
①①①① |----|
口口口口 |③---|
29
口口口口 |----|
口口口口 |----|
口口口口 |----|
口口口口 |----|
30
口口口口 |①---|
②②②② |--②-|
①①①① |----|
③③③③ |③---|
31
口口口口 |----|
口口口口 |----|
口口口口 |----|
口口口口 |----|
32
口②②口 |①---|
①口口口 |----|
①口口口 |②---|
口口口口 |----|
33
口口口口 |①---|
口口口① |----|
口口口① |②---|
口②②口 |----|
34
口②②口 |①---|
①口口③ |②---|
①口口③ |③---|
口④④口 |④---|
35
口②②口 |①---|
①口口③ |②---|
①④④③ |③---|
口④④口 |④---|
36
①口口口 |①---|
①口口口 |②---|
口口口口
②口口②

④口口④
口口口口
口③③口 |③---|
口口口口 |④---|
37
口④④口 |①---|
口①①口 |②---|
口口口口 |③---|
②③③② |④---|
38
口口口① |①---|
口口口① |②---|
口口口口
②口口②

④口口④
口口口口
口③③口 |③---|
口口口口 |④---|
39
口④④口 |①---|
口①①口 |②---|
口口口口 |③---|
②③③② |④---|
40
①口口口 |①---|
①口口口 |②---|
口口口口
②口口②

④口口④
口口口口
口③③口 |③---|
口口口口 |④---|
41
口④④口 |①---|
口①①口 |②---|
口口口口 |③---|
②③③② |④---|
42
口口口① |①---|
口口口① |②---|
口口口口
②口口②

④口口④
口口口口
口③③口 |③---|
口口口口 |④---|
43
口④④口 |①---|
口①①口 |②---|
口口口口 |③---|
②③③② |④---|
44
口⑥口口 |①-②-|
⑤口口口 |③-④-|
口②③口 |----|
①口口④ |⑤-⑥-|
45
⑤口①⑤ |①-②-|
口③④② |--③-|
口口口口 |④---|
口口口口 |⑤---|
46
口口⑥口 |①-②-|
口口口⑤ |③-④-|
口③②口 |----|
④口口① |⑤-⑥-|
47
⑤①口⑤ |①-②-|
②④③口 |--③-|
口口口口 |④---|
口口口口 |⑤---|
48
口⑥口口 |①-②-|
⑤口口口 |③-④-|
口②③口 |----|
①口口④ |⑤-⑥-|
49
⑤口①⑤ |①-②-|
口③④② |--③-|
口口口口 |④---|
口口口口 |⑤---|
50
口口⑥口 |①-②-|
口口口⑤ |③-④-|
口③②口 |----|
④口口① |⑤-⑥-|
51
⑤①口⑤ |①-②-|
②④③口 |--③-|
口口口口 |④---|
口口口口 |⑤---|
52
口口口口 |①---|
口口口口 |----|
口①①口 |----|
口①①口 |----|
53
口口口口 |----|
口口口口 |----|
口口口口 |----|
口口口口 |----|
54
口口口口 |----|
口口口口 |----|
口口口口 |----|
口口口口 |----|
55
口口口口 |----|
口口口口 |----|
口口口口 |----|
口口口口 |----|
56
⑤口口⑥ |①-②-|
①口口② |③-④-|
口⑦⑧口 |⑤-⑥-|
口③④口 |⑦-⑧-|
57
⑤口口⑥ |①-②-|
①口口② |③-④-|
口⑦⑧口 |⑤-⑥-|
口③④口 |⑦-⑧-|
58
口口口口 |①---|
①口口③ |②---|
①口口③ |③---|
④④②② |④---|
59
⑤口口⑥ |--①-|
口③④口 |②-③-|
①口口② |④-⑤-|
口口口口 |⑥---|
60
口口③口 |①---|
口口口③ |②---|
①②口口 |③---|
口①②口 |----|
61
口③口口 |①---|
③口口口 |②---|
口②①口 |③---|
口口②① |----|
62
口④③口 |①---|
④口口③ |②---|
①②口口 |③---|
口①②口 |④---|
63
口③④口 |①---|
③口口④ |②---|
口②①口 |③---|
口口②① |④---|
64
口口③口 |①---|
口口口③ |②---|
①②口口 |③---|
口①②口 |----|
65
口③口口 |①---|
③口口口 |②---|
口②①口 |③---|
口口②① |----|
66
口口口口 |①---|
口③口③ |--②-|
②口②口 |----|
口①口① |③---|
67
①①②② |①---|
口口口口 |②---|
口③③口 |③---|
口③③口 |----|
68
①⑦口③ |①-②-|
⑥②④口 |③-④-|
⑤口口口 |--⑤-|
口口口口 |⑥-⑦-|
69
口口①口 |①-②-|
口口口② |--③-|
③⑦⑥口 |④-⑤-|
口⑤④口 |⑥-⑦-|
70
③口⑦① |①-②-|
口④②⑥ |③-④-|
口口口⑤ |--⑤-|
口口口口 |⑥-⑦-|
71
口①口口 |①-②-|
②口口口 |--③-|
口⑥⑦③ |④-⑤-|
口④⑤口 |⑥-⑦-|
72
①⑦口③ |①-②-|
⑥②④口 |③-④-|
⑤口口口 |--⑤-|
口口口口 |⑥-⑦-|
73
口口①口 |①-②-|
口口口② |--③-|
③⑦⑥口 |④-⑤-|
口⑤④口 |⑥-⑦-|
74
③口⑦① |①-②-|
口④②⑥ |③-④-|
口口口⑤ |--⑤-|
口口口口 |⑥-⑦-|
75
口①口口 |①-②-|
②口口口 |--③-|
口⑥⑦③ |④-⑤-|
口④⑤口 |⑥-⑦-|
76
④口②⑤ |①-②-|
口③口① |③-④-|
口口口⑤ |--⑤-|
⑥口⑥口 |--⑥-|

accuracy: 100%
最終更新:2022年05月04日 16:49