アットウィキロゴ
Right Time Right Way
KAN TAKAHIKO

EXTREME

Level: 9.8
BPM: 174
Notes: 656

1
口口口口 |----|
口口口口 |----|
口口口口 |----|
口口口口 |----|
2
口口④④ |①---|
口①口口 |②-③-|
②口口③ |--④-|
口①口③ |----|
3
口①口口 |①---|
②口口③ |②-③-|
口口口③ |--④-|
④④口口 |----|
4
④④口口 |①---|
口口口口 |②-③-|
③口口② |--④-|
③口①口 |----|
5
口口①口 |①---|
③口口② |②-③-|
③口口口 |--④-|
口口④④ |----|
6
口口④④ |①---|
口口口口 |②-③-|
②口口③ |--④-|
口①口③ |----|
7
口①口口 |①---|
②口口③ |②-③-|
口口口③ |--④-|
④④口口 |----|
8
④④口口 |①---|
口口口口 |②-③-|
③口口② |--④-|
③口①口 |----|
9
口口①口 |①---|
③口口② |②-③-|
口口口口 |--④-|
口口④④ |----|
10
口口口口 |①-②-|
③①②口 |③-④-|
③口口④
口①口口

口口口⑤
口⑥口口
口口⑤口 |--⑤-|
口口口⑥ |⑥---|
11
口①②口 |①-②-|
③口口④ |③-④-|
③口⑥口 |--⑤-|
⑤⑤口⑥ |⑥---|
12
口口口口 |①-②-|
口②①③ |③-④-|
④口口③
口口①口

⑤口口口
口口⑥口
口⑤口口 |--⑤-|
⑥口口口 |⑥---|
13
口②①口 |①-②-|
④口口③ |③-④-|
口⑥口③ |--⑤-|
⑥口⑤⑤ |⑥---|
14
口口口口 |①-②-|
③①②口 |③-④-|
③口口④
口①口口

口口口⑤
口⑥口口
口口⑤口 |--⑤-|
口口口⑥ |⑥---|
15
口①②口 |①-②-|
③口口④ |③-④-|
③口⑥口 |--⑤-|
⑤⑤口⑥ |⑥---|
16
口口口口 |①-②-|
口②①③ |③-④-|
④口口③
口口①口

⑤口口口
口口⑥口
口⑤口口 |--⑤-|
⑥口口口 |⑥---|
17
口②①⑤ |①-②-|
④口口③ |③-④⑤|
口⑦口③ |--⑥-|
⑦口⑥⑥ |⑦---|
18
口口①口 |①---|
口口口口 |----|
口口①口
口口口口

口口③口
口②口口
口口口口 |----|
口口口口 |②-③-|
19
②口口口 |--①-|
口口口口 |--②-|
口口①口 |--③-|
口③口口 |----|
20
②口口① |①---|
口口口口 |--②-|
①口口②
口口口口

口口口③
口口口口
③口口口 |----|
口口口口 |③---|
21
①口口口 |--①-|
口口②口 |----|
口口口① |②---|
口②口口 |----|
22
②口④① |①---|
口③口口 |--②-|
①口口② |----|
口口口口 |③-④-|
23
②口口口 |--①-|
口口口口 |--②-|
口口①口 |--③-|
口③口口 |----|
24
②②①① |①---|
口口口口 |--②-|
①①②②
口口口口

口口③③
口口口口
③③口口 |----|
口口口口 |③---|
25
①①口口 |--①-|
口口口口 |----|
口口①①
口口口口

④口口③
口②②口
口口口口 |②-③-|
口②②口 |--④-|
26
口③③⑥ |①-②-|
③口口② |--③-|
口①①④ |--④-|
口⑤⑤口 |⑤-⑥-|
27
口口口⑥ |①-②-|
④口①口 |--③-|
口②口口 |④-⑤-|
口⑤口③ |--⑥-|
28
②③③口 |①-②-|
口口口③ |--③-|
口①①口
口口口口

⑥口口口
口口口口
④口口口 |--④-|
口⑤⑤口 |⑤-⑥-|
29
⑥口口⑤ |①-②-|
口①④口 |--③-|
口口②口 |④-⑤-|
③口口口 |--⑥-|
30
口③③⑥ |①-②-|
③口口② |--③-|
口①①④ |--④-|
口⑤⑤口 |⑤-⑥-|
31
口口口⑥ |①-②-|
④口①口 |--③-|
口②口口 |④-⑤-|
口⑤口③ |--⑥-|
32
②口③口 |①-②-|
口⑥口⑤ |③-④-|
④①①口 |--⑤-|
口口口⑦ |⑥-⑦-|
33
①口②口 |--①-|
口⑤口④ |②-③-|
③口口口 |--④-|
口口口⑥ |⑤-⑥-|
34
①②④③ |--①-|
口口口口 |--②-|
②①③④ |--③-|
口口口口 |--④-|
35
①②口口 |--①-|
⑤口口⑤ |--②-|
②①口口 |③-④-|
⑤④③⑤ |⑤---|
36
②口口① |①-②-|
口②①口 |③-④-|
④口口③
口④③口

口口口⑥
口口口口
口口⑦口 |--⑤-|
口口口⑤ |⑥-⑦-|
37
口⑤⑦口 |①-②-|
口①口口 |--③-|
口④⑥口 |④-⑤-|
②口口③ |⑥-⑦-|
38
①口口② |①-②-|
口②①口 |③-④-|
③口口④
口④③口

⑥口口口
口⑦口口
口口口口 |--⑤-|
⑤口口口 |⑥-⑦-|
39
口口口口 |①-②-|
口口口口 |--③-|
口口①口
③口口②

口⑦⑤口
口口口口
口④⑥口 |④-⑤-|
口口口口 |⑥-⑦-|
40
②口口① |①-②-|
口②①口 |③-④-|
④口口③
口④③口

口口口⑥
口口口口
口口⑦口 |--⑤-|
口口口⑤ |⑥-⑦-|
41
口⑤⑦口 |①-②-|
口①口口 |--③-|
口④⑥口 |④-⑤-|
②口口③ |⑥-⑦-|
42
①口口② |①-②-|
口②①口 |③-④-|
③口口④
口④③口

⑥口口口
口⑦口口
口口口口 |--⑤-|
⑤口口口 |⑥-⑦-|
43
口口口口 |①-②-|
口口口口 |--③-|
口口①口
③口口②

口⑥⑥口
④口口⑤
⑤⑥⑥④ |④-⑤-|
口口口口 |--⑥-|
44
②口口① |①-②-|
口②①口 |③-④-|
④口口③
口④③口

口口口⑥
口口口口
口口⑦口 |--⑤-|
口口口⑤ |⑥-⑦-|
45
口⑤⑦口 |①-②-|
口①口口 |--③-|
口④⑥口 |④-⑤-|
②口口③ |⑥-⑦-|
46
①口口② |①-②-|
口②①口 |③-④-|
③口口④
口④③口

⑥口口口
口⑦口口
口口口口 |--⑤-|
⑤口口口 |⑥-⑦-|
47
口口口口 |①-②-|
口口口口 |--③-|
口口①口
③口口②

口⑥⑥口
④口口⑤
⑤⑥⑥④ |④-⑤-|
口口口口 |--⑥-|
48
②口口① |①-②-|
口②①口 |③-④-|
④口口③
口④③口

口口口⑥
口口口口
口口⑦口 |--⑤-|
口口口⑤ |⑥-⑦-|
49
口⑤⑦口 |①-②-|
口①口口 |--③-|
口④⑥口 |④-⑤-|
②口口③ |⑥-⑦-|
50
①口口② |①-②-|
口②①口 |③-④-|
③口口④
口④③口

⑥口口口
口⑦口口
口口口口 |--⑤-|
⑤口口口 |⑥-⑦-|
51
口口口口 |①-②-|
口口口口 |--③-|
口口①口
③口口②

⑤口口⑦
口口口口
口④⑥口 |④-⑤-|
口口口口 |⑥-⑦-|
52
口②口口 |①---|
①口口① |--②-|
口口口口 |----|
口①①② |----|
53
口口口① |--①-|
口口口② |----|
口口口口 |--②-|
口①②口 |----|
54
口①口口 |①---|
口口口口 |--②-|
①口口③ |③---|
④口口② |--④-|
55
口口口口 |①---|
口口口口 |--②-|
①口口③ |③---|
④口口② |--④-|
56
口口口口 |①-②-|
⑧⑦③④ |③-④-|
①②⑥⑤ |⑤-⑥-|
口口口口 |⑦-⑧-|
57
口口口口 |①-②-|
⑧⑦③④ |③-④-|
①②⑥⑤ |⑤-⑥-|
口口口口 |⑦-⑧-|
58
①③⑤⑦ |①-②-|
口口口口 |③-④-|
②④⑥⑧ |⑤-⑥-|
口口口口 |⑦-⑧-|
59
口口⑦口 |①-②-|
口③⑤⑦ |③-④-|
②④⑥口 |⑤-⑥-|
口①①口 |⑦---|
60
①口口口 |①---|
口①口口 |--②-|
口②口口
口口口①

口口口③
口口③口
口口口③ |③---|
口口口④ |--④-|
61
口口口④ |--①-|
口口④口 |--②③|
口③②④ |④---|
①口口口 |----|
62
①口口④ |①-②-|
口①④② |--③-|
口③口④ |④---|
口口口① |----|
63
①⑥口⑤ |①-②-|
口①⑤④ |③-④-|
口口⑦⑤ |⑤-⑥-|
口③⑧② |--⑦⑧|
64
①口口口 |①---|
口①口口 |--②-|
口②口口
口口口①

口口口③
口口③口
口口口③ |③---|
口口口④ |--④-|
65
口③口② |--①-|
口口②口 |----|
口口④② |②-③-|
①口口口 |--④-|
66
①口口④ |①-②-|
口①④口 |③-④-|
①口口④
③口②口

⑧口口口
口⑧口⑤
⑧⑥⑦口 |⑤-⑥⑦|
口口口口 |⑧---|
67
口口口③ |①-②-|
口口口④ |③④⑤⑥|
口口口⑤ |----|
②口①⑥ |----|
68
口①③⑤ |①-②-|
②④①③ |③-④⑤|
①②④口
口口口口

⑥⑦口口
⑧口⑦口
⑦⑧口口 |--⑥-|
口口口口 |⑦-⑧-|
69
⑥⑤①④ |①-②-|
口②⑤① |--③④|
⑧⑥②口 |⑤-⑥-|
③③⑦口 |⑦-⑧-|
70
⑤③①口 |①-②-|
③①④② |③-④⑤|
口④②①
口口口口

口口⑦⑥
口⑦口⑧
口口⑧⑦ |--⑥-|
口口口口 |⑦-⑧-|
71
⑥①⑦⑧ |①-②③|
①⑦②口 |④-⑤⑥|
④②⑧⑩ |⑦-⑧-|
③⑨⑤⑤ |⑨-⑩-|
72
口①③⑤ |①-②-|
②④①③ |③-④⑤|
①②④口
口口口口

⑥⑦口口
⑧口⑦口
⑦⑧口口 |--⑥-|
口口口口 |⑦-⑧-|
73
⑧⑦①⑥ |①-②③|
口②⑦① |④-⑤⑥|
⑩⑧②④ |⑦-⑧-|
⑤⑤⑨③ |⑨-⑩-|
74
⑤③①口 |①-②-|
③①④② |③-④⑤|
口④②①
口口口口

口口⑦⑥
口⑦口⑧
口口⑧⑦ |--⑥-|
口口口口 |⑦-⑧-|
75
③③口④ |①-②-|
⑨⑨⑤⑦ |③-④⑤|
⑥⑥⑧⑩ |⑥-⑦⑧|
①①⑪② |⑨-⑩⑪|
76
①口②⑤ |①-②-|
口⑥⑤口 |③-④-|
⑥④口⑤ |--⑤-|
口⑥口③ |--⑥-|

accuracy: 100%
最終更新:2022年05月04日 17:02