アットウィキロゴ
TRIUMPH
AJURIKA

BASIC

Level: 3
BPM: 183
Notes: 226

1
口口口口 |----|
口口口口 |----|
口口口口 |----|
口口口口 |----|
2
口口口口 |①---|
口口口口 |----|
口①②口 |②---|
口口口口 |----|
3
口口口口 |①---|
①②②① |----|
口口口口 |②---|
口口口口 |----|
4
口口口口 |①---|
口口口口 |----|
口①②口 |②---|
口口口口 |----|
5
口口口口 |①---|
①②②① |----|
口口口口 |②---|
口口口口 |----|
6
口口口口 |①---|
口口口口 |----|
口①②口 |②---|
口口口口 |----|
7
口口口口 |①---|
①②②① |----|
口口口口 |②---|
口口口口 |----|
8
②①①② |①---|
口口口口 |----|
口口口口 |②---|
口口口口 |----|
9
口口口口 |①---|
①②②① |----|
口口口口 |②---|
口口口口 |----|
10
①口口口 |①---|
②口口口 |----|
口口口口 |②---|
口口口口 |----|
11
口口口口 |①---|
口口口口 |----|
①口口口 |②---|
②口口口 |----|
12
口口口口 |①---|
口口口口 |----|
口②口口 |②---|
口①口口 |----|
13
口②口口 |①---|
口①口口 |----|
口口口口 |②---|
口口口口 |----|
14
口口①口 |①---|
口口②口 |----|
口口口口 |②---|
口口口口 |----|
15
口口口口 |①---|
口口口口 |----|
口口①口 |②---|
口口②口 |----|
16
口口口口 |①---|
口口口口 |----|
口口口② |②---|
口口口① |----|
17
口口口② |①---|
口口口① |----|
口口口口 |②---|
口口口口 |----|
18
口①口口 |①---|
口口口口 |----|
口口口口 |----|
口口口口 |----|
19
口口口口 |----|
口口口口 |----|
口口口口 |----|
口口口口 |----|
20
口口口口 |①---|
口口①口 |----|
口口口口 |----|
口口口口 |----|
21
口口口口 |----|
口口口口 |----|
口口口口 |----|
口口口口 |----|
22
口口口口 |①---|
口口口口 |----|
口①口口 |----|
口口口口 |----|
23
口口口口 |----|
口口口口 |----|
口口口口 |----|
口口口口 |----|
24
口口口口 |①---|
口口口口 |----|
口口口口 |----|
口口①口 |----|
25
口口口口 |----|
口口口口 |----|
口口口口 |----|
口口口口 |----|
26
口口口口 |①---|
①口口口 |----|
②口口口 |②---|
口口口口 |----|
27
口口口口 |①---|
口②口口 |----|
口①口口 |②---|
口口口口 |----|
28
口口口口 |①---|
口口①口 |----|
口口②口 |②---|
口口口口 |----|
29
口口口口 |①---|
口口口② |----|
口口口① |②---|
口口口口 |----|
30
口口口口 |①---|
①口口口 |----|
②口口口 |②---|
口口口口 |----|
31
口口口口 |①---|
口②口口 |----|
口①口口 |②---|
口口口口 |----|
32
口口口口 |①---|
口口①口 |----|
口口②口 |②---|
口口口口 |----|
33
口口口口 |①---|
口口口② |----|
口口口① |②---|
口口口口 |----|
34
口①②口 |①---|
口口口口 |----|
口口口口 |②---|
口口口口 |----|
35
口口口口 |①---|
口②①口 |----|
口口口口 |②---|
口口口口 |----|
36
口口口口 |①---|
口口口口 |----|
口①②口 |②---|
口口口口 |----|
37
口口口口 |①---|
口口口口 |----|
口口口口 |②---|
口②①口 |----|
38
口①②口 |①---|
口口口口 |----|
口口口口 |②---|
口口口口 |----|
39
口口口口 |①---|
口②①口 |----|
口口口口 |②---|
口口口口 |----|
40
口口口口 |①---|
口口口口 |----|
口①②口 |②---|
口口口口 |----|
41
口口口口 |①---|
口口口口 |----|
口口口口 |②---|
口②①口 |----|
42
口口口口 |①---|
口①口口 |----|
口口口口 |----|
口口口口 |----|
43
口口口口 |①---|
口口①口 |----|
口口口口 |----|
口口口口 |----|
44
口口口口 |①---|
口口口口 |----|
口①口口 |----|
口口口口 |----|
45
口口口口 |①---|
口口口口 |----|
口口①口 |----|
口口口口 |----|
46
口口口口 |①---|
口①口口 |----|
口口口口 |----|
口口口口 |----|
47
口口口口 |①---|
口口①口 |----|
口口口口 |----|
口口口口 |----|
48
口口口口 |①---|
口口口口 |----|
口①口口 |----|
口口口口 |----|
49
口口口口 |①---|
口口口口 |----|
口口①口 |----|
口口口口 |----|
50
口口口口 |①---|
口口口口 |----|
①②口口 |②---|
口口口口 |----|
51
口口口口 |①---|
口口口口 |----|
口口①② |②---|
口口口口 |----|
52
口口口口 |①---|
口口②① |----|
口口口口 |②---|
口口口口 |----|
53
口口口口 |①---|
②①口口 |----|
口口口口 |②---|
口口口口 |----|
54
口口口口 |①---|
口口口口 |----|
①②口口 |②---|
口口口口 |----|
55
口口口口 |①---|
口口口口 |----|
口口①② |②---|
口口口口 |----|
56
口口口口 |①---|
口口②① |----|
口口口口 |②---|
口口口口 |----|
57
口口口口 |①---|
②①口口 |----|
口口口口 |②---|
口口口口 |----|
58
①②口口 |①---|
口口口口 |----|
口口口口 |②---|
口口口口 |----|
59
口口①② |①---|
口口口口 |----|
口口口口 |②---|
口口口口 |----|
60
口口口口 |①---|
口口口口 |----|
口口口口 |②---|
口口②① |----|
61
口口口口 |①---|
口口口口 |----|
口口口口 |②---|
②①口口 |----|
62
①②口口 |①---|
口口口口 |----|
口口口口 |②---|
口口口口 |----|
63
口口①② |①---|
口口口口 |----|
口口口口 |②---|
口口口口 |----|
64
口口口口 |①---|
口口口口 |----|
③①①③ |②---|
口②②口 |--③-|
65
②口口② |--①-|
①口口① |--②-|
口口口口 |----|
口口口口 |----|
66
口①口口 |①---|
口②口口 |②---|
口③口口 |③---|
口④口口 |④---|
67
口口④口 |①---|
口口③口 |②---|
口口②口 |③---|
口口①口 |④---|
68
口①口口 |①---|
口②口口 |②---|
口③口口 |③---|
口④口口 |④---|
69
口口口口 |①---|
②口口② |----|
①口口① |②---|
口口口口 |----|
70
口①口口 |①---|
口②口口 |②---|
口③口口 |③---|
口④口口 |④---|
71
口口④口 |①---|
口口③口 |②---|
口口②口 |③---|
口口①口 |④---|
72
口①口口 |①---|
口②口口 |②---|
口③口口 |③---|
口④口口 |④---|
73
口口口口 |①---|
②口口② |----|
①口口① |②---|
口口口口 |----|
74
口口①口 |①---|
口口②口 |②---|
口口③口 |③---|
口口④口 |④---|
75
口④口口 |①---|
口③口口 |②---|
口②口口 |③---|
口①口口 |④---|
76
口口①口 |①---|
口口②口 |②---|
口口③口 |③---|
口口④口 |④---|
77
口口口口 |①---|
②口口② |----|
①口口① |②---|
口口口口 |----|
78
口口①口 |①---|
口口②口 |②---|
口口③口 |③---|
口口④口 |④---|
79
口④口口 |①---|
口③口口 |②---|
口②口口 |③---|
口①口口 |④---|
80
口口①口 |①---|
口口②口 |②---|
口口③口 |③---|
口口④口 |④---|
81
口口口口 |①---|
②口口② |----|
①口口① |②---|
口口口口 |----|
82
①②③④ |①---|
口口口口 |②---|
口口口口 |③---|
口口口口 |④---|
83
口口口口 |①---|
④③②① |②---|
口口口口 |③---|
口口口口 |④---|
84
口口口口 |①---|
口口口口 |②---|
①②③④ |③---|
口口口口 |④---|
85
口口口口 |①---|
口口口口 |②---|
口口口口 |③---|
④③②① |④---|
86
口口口口 |①---|
口口口口 |②---|
①②③④ |③---|
口口口口 |④---|
87
口口口口 |①---|
④③②① |②---|
口口口口 |③---|
口口口口 |④---|
88
口口口口 |①---|
口口口口 |----|
③①①③ |②---|
口②②口 |--③-|
89
②口口② |--①-|
①③③① |--②-|
口③③口 |----|
口口口口 |--③-|

accuracy: 100%
最終更新:2022年05月10日 03:31