アットウィキロゴ
TRIUMPH
AJURIKA

ADVANCED

Level: 8
BPM: 183
Notes: 576

1
口口口口 |----|
口口口口 |----|
口口口口 |----|
口口口口 |----|
2
②口口② |①---|
口③④口 |--②-|
①⑤⑥① |③-④-|
口口口口 |⑤-⑥-|
3
口口口口 |①--②|
③口口口 |--③-|
口口口②
口①口口

口口口口
口口口④
口口⑤口 |--④-|
口⑥口口 |⑤-⑥-|
4
②口口② |①---|
口④③口 |--②-|
①⑥⑤① |③-④-|
口口口口 |⑤-⑥-|
5
口口口口 |①--②|
口口口③ |--③-|
②口口口
口口①口

口口口口
④口口口
口⑤口口 |--④-|
口口⑥口 |⑤-⑥-|
6
②口口② |①---|
口③④口 |--②-|
①⑤⑥① |③-④-|
口口口口 |⑤-⑥-|
7
口口口④ |①--②|
③⑤⑥⑦ |--③-|
口口口② |-④--|
口①口口 |⑤⑥⑦-|
8
④口口口 |①--②|
⑦⑥⑤口 |--③-|
口①口③ |--④-|
口口②口 |⑤⑥⑦-|
9
口口口口 |①--②|
口口口① |--③-|
口口②口 |----|
口③口口 |----|
10
①口④口 |①---|
口⑤口③ |②-③-|
口口口② |--④-|
口口口口 |--⑤-|
11
口④④口 |--①-|
口口③口 |②-③-|
口②①口 |④---|
口⑤⑤口 |⑤---|
12
口④口① |①---|
③口⑤口 |②-③-|
②口口口 |--④-|
口口口口 |--⑤-|
13
口⑤⑤口 |--①-|
口③口口 |②-③-|
口①②口 |④---|
口④④口 |⑤---|
14
①口④口 |①---|
口⑤口③ |②-③-|
口口口② |--④-|
口口口口 |--⑤-|
15
口④④口 |--①-|
口口③口 |②-③-|
口②①口 |④---|
口⑤⑤口 |⑤---|
16
口④口① |①---|
③口⑤口 |②-③-|
②口口口 |--④-|
口口口口 |--⑤-|
17
⑤⑤④④ |--①-|
口③口口 |②-③-|
口①②口 |④--⑤|
口⑥⑥口 |--⑥-|
18
口口口口 |①---|
口口④① |②-③-|
②③口⑤ |--④-|
口口口口 |--⑤-|
19
口口口口 |--①-|
口口口⑤ |②-③-|
口③④口 |④---|
口②①口 |⑤---|
20
口口口口 |①---|
①④口口 |②-③-|
⑤口③② |--④-|
口口口口 |--⑤-|
21
口口口口 |--①-|
⑤口口口 |②-③-|
口④③口 |④---|
口①②口 |⑤---|
22
口口口口 |①---|
口口④① |②-③-|
②③口⑤ |--④-|
口口口口 |--⑤-|
23
口口口口 |--①-|
口口口⑤ |②-③-|
口③④口 |④---|
口②①口 |⑤---|
24
口口口口 |①---|
①④口口 |②-③-|
⑤口③② |--④-|
口口口口 |--⑤-|
25
口口口口 |--①-|
口口⑤口 |②-③-|
口④③⑥ |④--⑤|
口①②口 |--⑥-|
26
口③口④ |①---|
口③口④ |②---|
②口口口 |③---|
口①口口 |④---|
27
④口③口 |①---|
④口③口 |②---|
口口口① |③---|
口口②口 |④---|
28
口④④口 |①---|
口口口口 |②-③-|
口口③① |--④-|
口口②口 |----|
29
口口口口 |①---|
口①口口 |②---|
口口②口 |③---|
口口口③ |----|
30
④口③口 |①---|
④口③口 |②---|
口口口② |③---|
口口①口 |④---|
31
口③口④ |①---|
口③口④ |②---|
①口口口 |③---|
口②口口 |④---|
32
口④④口 |①---|
口口口口 |②-③-|
口口③① |--④-|
口口②口 |----|
33
口口口口 |①---|
口口①口 |②---|
口②口口 |③---|
③口口口 |----|
34
口①口口 |①---|
②口口口 |②---|
口③口④ |③---|
口③口④ |④---|
35
口口②口 |①---|
口口口① |②---|
④口③口 |③---|
④口③口 |④---|
36
口口②口 |①---|
口口③① |②-③-|
口口口口 |--④-|
口④④口 |----|
37
口口口③ |①---|
口口②口 |②---|
口①口口 |③---|
口口口口 |----|
38
口口①口 |①---|
口口口② |②---|
④口③口 |③---|
④口③口 |④---|
39
口②口口 |①---|
①口口口 |②---|
口③口④ |③---|
口③口④ |④---|
40
口口②口 |①---|
口口③① |②-③-|
口口口口 |--④-|
口④④口 |----|
41
③口口口 |①---|
口②口口 |②---|
口口①口 |③---|
口口口口 |----|
42
口口口口 |①---|
口②①口 |②---|
口④③口 |③---|
口口口口 |④---|
43
口口口③ |①--②|
④⑤⑥② |--③-|
口口口① |④-⑤-|
口口口口 |⑥---|
44
①口口④ |①---|
口口口口 |②-③-|
口③②口 |--④-|
口口口口 |----|
45
口口口口 |①---|
①口口口 |②---|
②口口口 |③---|
口③口口 |----|
46
口口口口 |①---|
口②①口 |②---|
口④③口 |③---|
口口口口 |④---|
47
口口口③ |①--②|
④⑤⑥② |--③-|
口口口① |④-⑤-|
口口口口 |⑥---|
48
①口口④ |①---|
口口口口 |②-③-|
口③②口 |--④-|
口口口口 |----|
49
③口口③ |①---|
①口口口 |②---|
②口口口 |③---|
口口口口 |----|
50
口口口口 |①-②-|
③④⑤口 |③---|
口口口口 |④---|
口②①口 |⑤---|
51
口口口口 |①---|
口口口① |②---|
口④③② |③---|
口口口口 |④---|
52
口口口口 |①---|
②③④口 |②---|
①口口口 |③---|
口口口口 |④---|
53
④口口④ |①---|
口口口① |②---|
口口③② |③---|
口口口口 |④---|
54
口口口口 |①-②-|
③④⑤口 |③---|
口口口口 |④---|
口②①口 |⑤---|
55
口口口口 |①---|
口口口① |②---|
口④③② |③---|
口口口口 |④---|
56
④口口④ |①---|
②③口口 |②---|
①口口口 |③---|
口口口口 |④---|
57
④口口④ |①-②-|
③口口③ |--③-|
口②①口 |----|
口②①口 |④---|
58
口口口口 |①-②-|
口③口⑤ |③---|
口口④口 |④---|
口②①口 |⑤---|
59
口②①口 |①-②-|
⑤口③口 |③---|
口④口口 |④---|
口口口口 |⑤---|
60
口口口口 |①-②-|
口③口⑤ |③---|
口口④口 |④---|
口②①口 |⑤---|
61
⑤②①⑤ |①-②-|
口口③口 |③---|
口④口口 |④---|
口口口口 |⑤---|
62
口口口口 |①-②-|
口口口口 |③-④-|
⑧⑥⑤⑦ |⑤-⑥-|
④②①③ |⑦-⑧-|
63
⑧⑥⑤⑦ |①-②-|
④②①③ |③-④-|
口口口口 |⑤-⑥-|
口口口口 |⑦-⑧-|
64
口口口口 |①-②-|
③①②④ |--③-|
④②①③ |④---|
口⑥⑤口 |⑤-⑥-|
65
③口口④ |--①-|
⑤①②⑤ |--②-|
⑤①②⑤ |--③-|
口④③口 |④-⑤-|
66
口②③口 |①-②-|
口口口口 |③---|
口①口口
口口口口

口口口口
口⑤⑥口
口⑦⑧口 |④---|
口口④口 |⑤⑥⑦⑧|
67
口口口口 |①-②-|
口口口② |--③-|
①口口口
口③③口

④口口口
口⑤口口
⑥口口口 |--④-|
口口口口 |⑤-⑥-|
68
⑤口口⑤ |①-②-|
口口③① |③-④-|
口口④② |--⑤-|
⑥口口⑥ |--⑥-|
69
口②②⑥ |①-②-|
⑤①④口 |--③-|
口④口⑤ |--④-|
⑥③③口 |⑤-⑥-|
70
③口②口 |①-②-|
口口口口 |③---|
口口①口
口口口口

口口口口
口⑦⑧口
口⑤⑥口 |④---|
口④④口 |⑤⑥⑦⑧|
71
口①口② |①-②-|
口口口口 |--③-|
口口口口
口③③口

⑤⑥⑦⑧
口口口④
口口口口 |--④-|
口口口口 |⑤⑥⑦⑧|
72
口口口口 |①-②-|
③①②④ |--③-|
④②①③ |④---|
口⑥⑤口 |⑤-⑥-|
73
③口口④ |--①-|
⑤①②⑤ |--②-|
⑤①②⑤ |--③-|
口④③口 |④-⑤-|
74
口②③口 |①-②-|
口口口口 |③---|
口①口口
口口口口

口口口口
口⑤⑥口
口⑦⑧口 |④---|
口口④口 |⑤⑥⑦⑧|
75
口口口口 |①-②-|
口口口② |--③-|
①口口口
口③③口

④口口口
口⑤口口
⑥口口口 |--④-|
口口口口 |⑤-⑥-|
76
⑤口口⑤ |①-②-|
口口③① |③-④-|
口口④② |--⑤-|
⑥口口⑥ |--⑥-|
77
口②②⑥ |①-②-|
⑤①④口 |--③-|
口④口⑤ |--④-|
⑥③③口 |⑤-⑥-|
78
③口②口 |①-②-|
口口口口 |③---|
口口①口
口口口口

口口口口
口⑦⑧口
口⑤⑥口 |④---|
口④④口 |⑤⑥⑦⑧|
79
口①口② |①-②-|
口口口口 |--③-|
口口口口
口③③口

⑤⑥⑦⑧
口口口④
口口口口 |--④-|
口口口口 |⑤⑥⑦⑧|
80
口口口口 |①-②-|
③①②④ |--③-|
④②①③ |④---|
口⑥⑤口 |⑤-⑥-|
81
③口口④ |--①-|
⑤①②⑤ |--②-|
⑤①②⑤ |--③-|
口④③口 |④-⑤-|
82
口①②口 |①-②-|
口③④口 |③-④-|
口⑤⑥口 |⑤-⑥-|
口⑦⑧口 |⑦-⑧-|
83
⑦口口⑧ |①-②-|
⑤口口⑥ |③-④-|
③口口④ |⑤-⑥-|
①口口② |⑦-⑧-|
84
口①②口 |①-②-|
口③④口 |③-④-|
口⑤⑥口 |⑤-⑥-|
口⑦⑧口 |⑦-⑧-|
85
⑦口口⑧ |①-②-|
⑤口口⑥ |③-④-|
③口口④ |⑤-⑥-|
①口口② |⑦-⑧-|
86
口口口口 |①-②-|
口③④⑤ |③-④-|
口②①⑥ |⑤-⑥-|
口口⑧⑦ |⑦-⑧-|
87
⑤⑥⑦⑧ |①-②-|
④口口口 |③-④-|
③口口口 |⑤-⑥-|
②①口口 |⑦-⑧-|
88
口口口口 |①-②-|
③①②④ |--③-|
④②①③ |④---|
口⑥⑤口 |⑤-⑥-|
89
③⑤⑤③ |--①-|
⑤①②⑤ |--②-|
口①②口 |--③-|
口④④口 |④-⑤-|

accuracy: 100%
最終更新:2022年05月10日 03:47