アットウィキロゴ
TRIUMPH
AJURIKA

EXTREME

Level: 9.8
BPM: 183
Notes: 787

1
口口口口 |----|
口口口口 |----|
口口口口 |----|
口口口口 |----|
2
③口口口 |①---|
②口口① |②-③-|
⑤⑦⑥④ |④⑤⑥⑦|
⑪⑨⑧⑩ |⑧⑨⑩⑪|
3
口③②① |①--②|
④③②① |--③-|
口⑤口口 |--④-|
口口⑥口 |⑤-⑥-|
4
⑪⑨⑧⑩ |①---|
⑤⑦⑥④ |②-③-|
②口口① |④⑤⑥⑦|
③口口口 |⑧⑨⑩⑪|
5
口口⑥口 |①--②|
口⑤口口 |--③-|
④③②① |--④-|
口③②① |⑤-⑥-|
6
③口口口 |①---|
②口口① |②-③-|
⑤⑦⑥④ |④⑤⑥⑦|
⑪⑨⑧⑩ |⑧⑨⑩⑪|
7
⑦③②① |①--②|
⑥③②① |--③-|
⑤④④口 |-④--|
口口口口 |⑤⑥⑦-|
8
⑦口口② |①--②|
⑥③口② |--③-|
⑤③④④ |--④-|
口①①口 |⑤⑥⑦-|
9
口③口③ |①--②|
口口①口 |--③-|
口口口口
②②①口

口口口口
口⑦⑥⑤
口④口口 |--④-|
口口口口 |⑤⑥⑦-|
10
①②④⑥ |①---|
口口口口 |②-③-|
⑦口②⑤ |④-⑤-|
口口③① |⑥-⑦-|
11
口口口口 |①-②-|
⑦⑥③① |③-④⑤|
口⑤②⑦ |⑥---|
口④口口 |⑦---|
12
①②口口 |①---|
口口口口 |②-③-|
①口②口
口口③口

口口④⑥
口口口口
⑦口口⑤ |④-⑤-|
口口口口 |⑥-⑦-|
13
口口口口 |①-②-|
⑦⑥③① |③-④⑤|
口⑤②⑦ |⑥---|
口④③口 |⑦---|
14
①②口口 |①---|
口口口口 |②-③-|
①口②口
口口③口

口口④⑥
口口口口
⑦口口⑤ |④-⑤-|
口口口口 |⑥-⑦-|
15
口口口口 |①-②-|
⑦⑥③① |③-④⑤|
口⑤②⑦ |⑥---|
口④③口 |⑦---|
16
①②口口 |①---|
口口口口 |②-③-|
①口②口
口口③口

口口④⑥
口口口口
⑦口口⑤ |④-⑤-|
口口口口 |⑥-⑦-|
17
口⑧⑧口 |①-②-|
口⑥③① |③-④⑤|
⑦⑤②⑦ |⑥--⑦|
口④③口 |--⑧-|
18
口口口① |①---|
口口②口 |②-③-|
④口③⑤ |--④-|
口口口口 |--⑤-|
19
⑤④③口 |--①-|
口①口口 |②-③④|
⑥②口口 |⑤---|
口口口口 |⑥---|
20
口口口口 |①---|
口②口口 |②-③-|
⑤③口④ |--④-|
口口①口 |--⑤-|
21
口口口口 |--①-|
口口①⑥ |②-③④|
口口②口 |⑤---|
口③④⑤ |⑥---|
22
口①口口 |①---|
口口②口 |②-③-|
④口③⑤ |--④-|
口口口口 |--⑤-|
23
⑤④③口 |--①-|
口①口口 |②-③④|
⑥②口口 |⑤---|
口口口口 |⑥---|
24
口口口口 |①---|
口②口① |②-③-|
⑤③口④ |--④-|
口口口口 |--⑤-|
25
口口口口 |--①-|
⑧⑥①⑦ |②③④⑤|
口④⑤口 |⑥--⑦|
口②③口 |--⑧-|
26
口口①口 |①-②③|
口口①口 |④-⑤⑥|
②③⑥⑤ |⑦---|
⑧④⑦⑧ |⑧---|
27
①口口① |①--②|
②⑧口② |--③-|
③⑥⑦③ |④⑤⑥⑦|
口④⑤口 |⑧---|
28
①口口口 |①---|
①口②③ |②-③-|
⑥口⑤④ |④-⑤-|
口口口口 |--⑥-|
29
①⑩⑨① |①-②-|
口⑧⑦④ |③-④-|
口③口口 |⑤-⑥-|
②口⑥⑤ |⑦⑧⑨⑩|
30
口口口① |①-②③|
口口口口 |④-⑤⑥|
②③⑥⑤ |⑦---|
⑧④⑦⑧ |⑧---|
31
①口口① |①--②|
②⑧口② |--③-|
③⑥⑦③ |④⑤⑥⑦|
口④⑤口 |⑧---|
32
①口口口 |①---|
①口②③ |②-③-|
⑥口⑤④ |④-⑤-|
口口口口 |--⑥-|
33
①口④① |①-②-|
③口口口 |③-④-|
口口口口 |⑤---|
口⑤②⑥ |⑥---|
34
⑧④⑦⑧ |①-②③|
②③⑥⑤ |④-⑤⑥|
口口①口 |⑦---|
口口①口 |⑧---|
35
口④⑤口 |①--②|
③⑥⑦③ |--③-|
②⑧口② |④⑤⑥⑦|
①口口① |⑧---|
36
口口口口 |①---|
⑥口⑤④ |②-③-|
①口②③ |④-⑤-|
①口口口 |--⑥-|
37
②口⑥⑤ |①-②-|
口③口口 |③-④-|
口⑧⑦④ |⑤-⑥-|
①⑩⑨① |⑦⑧⑨⑩|
38
⑧④⑦⑧ |①-②③|
②③⑥⑤ |④-⑤⑥|
口口口口 |⑦---|
口口口① |⑧---|
39
口④⑤口 |①--②|
③⑥⑦③ |--③-|
②⑧口② |④⑤⑥⑦|
①口口① |⑧---|
40
口口口口 |①---|
⑥口⑤④ |②-③-|
①口②③ |④-⑤-|
①口口口 |--⑥-|
41
口⑤②⑥ |①-②-|
⑦⑧口口 |③-④-|
③口口口 |⑤---|
①口④① |⑥-⑦⑧|
42
口口口口 |①---|
口口①④ |②---|
口口③口 |③---|
口②口口 |④---|
43
③口口口 |①--②|
②⑤④口 |--③-|
①⑦⑥口 |④⑤⑥⑦|
口口⑧口 |⑧---|
44
口③口口 |①---|
②口口口 |②-③-|
口④⑤口 |--④-|
口①口口 |--⑤-|
45
②口口口 |①-②-|
口口①口 |--③-|
口口口③
口口口口

口口口口
口口⑥⑤
口口口口 |④---|
口口口④ |--⑤⑥|
46
口口口口 |①---|
④①口口 |②---|
口③口口 |③---|
口口②口 |④---|
47
口口口③ |①--②|
口④⑤② |--③-|
口⑥⑦① |④⑤⑥⑦|
口⑧口口 |⑧---|
48
口口③口 |①---|
口口口② |②-③-|
口⑤④口 |--④-|
口口①口 |--⑤-|
49
口口口② |①-②-|
口①口口 |--③-|
③口口口 |④---|
④口口口 |----|
50
①口口口 |①-②-|
③口口口 |③---|
④口②② |④---|
⑤口①① |⑤---|
51
口④口口 |①---|
口③口口 |②---|
口②口口 |③---|
口①口口 |④---|
52
①口口口 |①---|
②口口口 |②---|
③口口口 |③---|
④口口口 |④---|
53
口④④④ |①---|
口③口口 |②---|
口②口口 |③---|
口①口口 |④---|
54
①口口口 |①-②-|
③口口口 |③---|
④口②② |④---|
⑤口①① |⑤---|
55
口④口口 |①---|
口③口口 |②---|
口②口口 |③---|
口①口口 |④---|
56
①口口口 |①---|
②口④④ |②---|
③口口口 |③---|
④口口口 |④---|
57
口⑥④④ |①-②-|
口⑤口口 |③-④-|
口③②② |⑤---|
口①①① |⑥---|
58
口口口口 |①-②-|
⑤口口口 |③---|
④②②口 |④---|
③①①口 |⑤---|
59
①③④⑤ |①-②-|
口口口口 |③---|
口口②口 |④---|
口口①口 |⑤---|
60
口口口口 |①-②-|
口口口① |③---|
口②口③ |④---|
口①⑤④ |⑤---|
61
口口①口 |①-②-|
⑤口②口 |③---|
④口口口 |④---|
③①口口 |⑤---|
62
①②③④ |①-②-|
口口口⑤ |③-④-|
口口口⑥ |⑤-⑥-|
口口⑧⑦ |⑦-⑧-|
63
⑤⑥⑦⑧ |①-②-|
④口口口 |③-④-|
③口口口 |⑤-⑥-|
②①口口 |⑦-⑧-|
64
⑨⑩⑪口 |①②③④|
⑧⑮⑫① |⑤⑥⑦⑧|
⑦⑭⑬② |⑨⑩⑪⑫|
⑥⑤④③ |⑬⑭⑮-|
65
口③口口 |--①-|
②口口② |--②-|
②④口② |--③-|
⑤①①⑤ |④-⑤-|
66
①口口① |①-②-|
口③②⑤ |③-④-|
⑧⑨②⑤ |⑤---|
⑥⑦④口 |⑥⑦⑧⑨|
67
③④③④ |①②③-|
①②⑦⑤ |--④-|
口口⑥⑥ |--⑤-|
口口⑤⑦ |⑥-⑦-|
68
⑥⑦⑥⑦ |①-②-|
⑤口口口 |③-④-|
②③口口 |⑤-⑥-|
④①口口 |--⑦-|
69
口口⑥⑥ |①-②-|
③①②① |--③-|
④③②口 |--④-|
口④⑤⑤ |⑤-⑥-|
70
①口口口 |①-②-|
④②②口 |③-④-|
口③口①
口口口口

口口口口
口口口口
口口⑨⑧ |⑤---|
⑤⑤⑦⑥ |⑥⑦⑧⑨|
71
④③④③ |①②③-|
⑤口②① |--④-|
⑨⑧口口 |--⑤-|
⑦⑥口口 |⑥⑦⑧⑨|
72
④②④② |①-②-|
口①口① |③-④-|
口口③口
口口口口

口口口口
⑤⑧⑤口
口⑦口口 |⑤-⑥-|
⑥口口口 |⑦-⑧-|
73
口③口口 |--①-|
②口口② |--②-|
②④口② |--③-|
⑤①①⑤ |④-⑤-|
74
①口口① |①-②-|
口③②⑤ |③-④-|
⑧⑨②⑤ |⑤---|
⑥⑦④口 |⑥⑦⑧⑨|
75
③④③④ |①②③-|
①②⑦⑤ |--④-|
口口⑥⑥ |--⑤-|
口口⑤⑦ |⑥-⑦-|
76
⑥⑧⑥⑧ |①-②-|
⑤口口口 |③-④-|
②③口口 |⑤-⑥-|
④①⑦口 |⑦-⑧-|
77
口口⑥⑥ |①-②-|
③①②① |--③-|
④③②口 |--④-|
口④⑤⑤ |⑤-⑥-|
78
①口口口 |①-②-|
④②②口 |③-④-|
口③口①
口口口口

口口口口
口口口口
⑥口⑩⑨ |⑤-⑥-|
⑤⑤⑧⑦ |⑦⑧⑨⑩|
79
④③④③ |①②③-|
⑤口②① |--④-|
⑨⑧口口 |--⑤-|
⑦⑥口口 |⑥⑦⑧⑨|
80
④②④② |①-②-|
口①口① |③-④-|
口口③口
口口口口

口口口口
⑤⑧⑤口
口⑦口口 |⑤-⑥-|
⑥口口口 |⑦-⑧-|
81
口③口口 |--①-|
②口口② |--②-|
②④口② |--③-|
⑤①①⑤ |④-⑤-|
82
①⑤⑤① |①-②-|
④口口口 |③-④-|
口口⑥③ |⑤-⑥-|
⑦②口⑧ |⑦-⑧-|
83
①⑤⑤① |①-②-|
口⑦⑧口 |③-④-|
④②口⑥ |⑤-⑥-|
口口③口 |⑦-⑧-|
84
①⑤⑤① |①-②-|
④口口口 |③-④-|
口②⑥⑧ |⑤-⑥-|
口⑦③口 |⑦-⑧-|
85
①口口① |①-②-|
口口口③ |③-④-|
④②口口
口口口口

⑪⑫口口
⑨⑩口口
口口⑦⑧ |⑤⑥⑦⑧|
口口⑤⑥ |⑨⑩⑪⑫|
86
⑧⑫口④ |①-②-|
⑥口③口 |③-④-|
口②⑦⑨ |⑤⑥⑦⑧|
①⑩⑪⑤ |⑨⑩⑪⑫|
87
口口①⑤ |①②③④|
口④口③ |⑤⑥⑦⑧|
②⑥口口
⑧口口⑦

⑩口口口
⑫口⑨口
⑮口⑪⑭ |⑨⑩⑪⑫|
口⑬⑯口 |⑬⑭⑮⑯|
88
③②③② |①-②-|
口①口① |--③-|
口口口口
口口口口

口口口口
④⑥④⑥
口⑤口⑤ |④---|
口口口口 |⑤-⑥-|
89
口②⑤② |--①-|
口⑤⑤口 |--②-|
②口②⑤ |--③-|
④①①③ |④-⑤-|

accuracy: 100%
最終更新:2022年05月10日 04:02