アットウィキロゴ
ラブキラ☆スプラッシュ
BEMANI Sound Team "Sota F." feat.いちか

BASIC

Level: 4
BPM: 152
Notes: 333

1
口口口口 |----|
口口口口 |----|
口口口口 |----|
口口口口 |----|
2
①口口口 |①---|
口②口口 |②---|
口口③口 |③---|
口口口④ |④---|
3
口③④口 |①---|
口①①口 |②---|
口②②口 |③---|
口口口口 |④---|
4
①口口口 |①---|
口口口② |②---|
③口口口 |③---|
口口口④ |④---|
5
口口口④ |①---|
③口口口 |②---|
口口口② |③---|
①口口口 |④---|
6
④④④④ |①---|
口③③口 |②---|
口②②口 |③---|
口①①口 |④---|
7
口口口口 |①---|
口口口口 |②---|
②②④④ |③---|
口①③口 |④---|
8
①口③口 |①---|
口②口④ |②---|
口口口口 |③---|
口口口口 |④---|
9
口口口口 |①---|
口口口口 |②---|
②②④④ |③---|
口①③口 |④---|
10
口①①口 |①---|
③③③③ |----|
口口口口 |②---|
口②②口 |③---|
11
口①②③ |①---|
口口口口 |②---|
口口口口 |③---|
口口口口 |----|
12
口口口口 |①---|
③②①口 |②---|
口口口口 |③---|
口口口口 |----|
13
口口口口 |①---|
口口口口 |②---|
口①②③ |③---|
口口口口 |----|
14
口口口口 |①---|
口口口口 |②---|
口口口口 |③---|
③②①口 |----|
15
口口口③ |①---|
口口口② |②---|
口口口① |③---|
口口口口 |----|
16
口口口口 |①---|
口口①口 |②---|
口口②口 |③---|
口口③口 |----|
17
口③口口 |①---|
口②口口 |②---|
口①口口 |③---|
口口口口 |----|
18
口口口口 |①---|
①口口口 |②---|
②口口口 |③---|
③口口口 |----|
19
口口口口 |①---|
口②①口 |----|
口①②口 |②---|
口口口口 |----|
20
①口口口 |①---|
口口口② |②---|
③口口口 |③---|
口口口④ |④---|
21
口口口口 |①---|
口②①口 |----|
口①②口 |②---|
口口口口 |----|
22
口口口④ |①---|
③口口口 |②---|
口口口② |③---|
①口口口 |④---|
23
口口口口 |①---|
口①②口 |----|
口②①口 |②---|
口口口口 |----|
24
①口口口 |①---|
口口口② |②---|
③口口口 |③---|
口口口④ |④---|
25
口口口口 |①---|
口②①口 |----|
口①②口 |②---|
口口口口 |----|
26
口口口④ |①---|
③口口口 |②---|
口口口② |③---|
①口口口 |④---|
27
口③③口 |①--②|
口②②口 |--③-|
口①①口
口口口口

口口口口
口口口口
口口④口 |----|
口口口口 |④---|
28
口口口口 |①--②|
③口口③ |--③-|
②④口② |----|
①口口① |④---|
29
口①①口 |①---|
③口口③ |----|
口口口口 |②---|
口口②口 |--③-|
30
②口口② |--①-|
口口口口 |--②-|
①口口① |----|
口口口口 |----|
31
口③③口 |①--②|
口②②口 |--③-|
口①①口
口口口口

口口口口
口口口口
口口④口 |----|
口口口口 |④---|
32
口口口口 |①--②|
③口口③ |--③-|
②④口② |----|
①口口① |④---|
33
②口口口 |①---|
口口①口 |----|
口③③口 |②---|
口口口口 |--③-|
34
口②②口 |--①-|
口①①口 |--②-|
口口口口 |----|
口口口口 |----|
35
口口口口 |①---|
①②口口 |----|
②①口口 |②---|
口口口口 |----|
36
口口口口 |①---|
口口①① |②---|
口口②② |③---|
口口③③ |----|
37
口口口口 |①---|
口口②① |----|
口口①② |②---|
口口口口 |----|
38
口口口口 |①---|
①①口口 |②---|
②②口口 |③---|
③③口口 |----|
39
口口口口 |①---|
①②口口 |----|
②①口口 |②---|
口口口口 |----|
40
口口口口 |①---|
口口①① |②---|
口口②② |③---|
口口③③ |----|
41
口口口口 |①---|
口口②① |----|
口口①② |②---|
口口口口 |----|
42
口口口口 |①---|
①①口口 |②---|
②②口口 |③---|
③③口口 |----|
43
口口④③ |①---|
口口②① |②---|
口口口口 |③---|
口口口口 |④---|
44
口口口口 |①---|
①①口口 |②---|
②②口口 |③---|
③③口口 |----|
45
③④口口 |①---|
①②口口 |②---|
口口口口 |③---|
口口口口 |④---|
46
口口口口 |①---|
口口①① |②---|
口口②② |③---|
口口③③ |----|
47
口口④③ |①---|
口口②① |②---|
口口口口 |③---|
口口口口 |④---|
48
口口口口 |①---|
①①口口 |②---|
②②口口 |③---|
③③口口 |----|
49
③④口口 |①---|
①②口口 |②---|
口口口口 |③---|
口口口口 |④---|
50
口口口口 |①---|
口口①① |②---|
口口②② |③---|
口口③③ |----|
51
③③③③ |①---|
口口口口 |----|
口①②口 |②---|
口口口口 |③---|
52
口口口口 |①---|
口③②口 |②---|
口①④口 |③---|
口口口口 |④---|
53
③口口口 |①--②|
②口口口 |--③-|
①口口口 |----|
口口口口 |----|
54
口口口口 |①---|
口④①口 |②---|
口②③口 |③---|
口口口口 |④---|
55
③③①① |①---|
口口口口 |----|
口口口口 |②---|
口口②② |③---|
56
口口口口 |①---|
口④①口 |②---|
口②③口 |③---|
口口口口 |④---|
57
口口口③ |①--②|
口口口② |--③-|
口口口① |----|
口口口口 |----|
58
口口口口 |①---|
口①④口 |②---|
口③②口 |③---|
口口口口 |④---|
59
①①③③ |①---|
口口口口 |----|
口口口口 |②---|
②②口口 |③---|
60
口口口口 |①---|
口③②口 |②---|
口①④口 |③---|
口口口口 |④---|
61
③口口口 |①--②|
②口口口 |--③-|
①口口口 |----|
口口口口 |----|
62
口口口口 |①---|
口④①口 |②---|
口②③口 |③---|
口口口口 |④---|
63
③③①① |①---|
口口口口 |----|
口口口口 |②---|
口口②② |③---|
64
口口口口 |①---|
口④①口 |②---|
口②③口 |③---|
口口口口 |④---|
65
口口口③ |①--②|
口口口② |--③-|
口口口① |----|
口口口口 |----|
66
口口口口 |①---|
口①④口 |②---|
口③②口 |③---|
口口口口 |④---|
67
①①③③ |①---|
口口口口 |----|
口口口口 |②---|
②②口口 |③---|
68
口口口口 |①---|
口口口口 |----|
口①①口 |----|
口口口口 |----|
69
口口口口 |----|
口口口口 |----|
口口口口 |----|
口口口口 |----|
70
口口口④ |①---|
③口口口 |②---|
口口口② |③---|
①口口口 |④---|
71
①口口口 |①---|
口口口② |②---|
③口口口 |③---|
口口口④ |④---|
72
口④口口 |①---|
口③口口 |②---|
口②口口 |③---|
口①口口 |④---|
73
口口④口 |①---|
口口③口 |②---|
口口②口 |③---|
口口①口 |④---|
74
口口口④ |①---|
③口口口 |②---|
口口口② |③---|
①口口口 |④---|
75
①口口口 |①---|
口口口② |②---|
③口口口 |③---|
口口口④ |④---|

accuracy: 100%
最終更新:2022年04月23日 00:59