アットウィキロゴ
ラブキラ☆スプラッシュ
BEMANI Sound Team "Sota F." feat.いちか

ADVANCED

Level: 8
BPM: 152
Notes: 590

1
口口口口 |----|
口口口口 |----|
口口口口 |----|
口口口口 |----|
2
⑨口口⑨ |①②③④|
①⑥口② |⑤-⑥-|
③口口④ |⑦-⑧-|
⑤⑧⑦口 |⑨---|
3
口②②口 |①---|
③口口⑥ |②---|
口①①口 |③-④-|
⑤口口④ |⑤-⑥-|
4
①②③口 |①--②|
口口口口 |--③-|
口口口口
口口口口

④口口④
口口口口
口口口口 |----|
口口口口 |④---|
5
口④③口 |①--②|
口口口口 |----|
口①②口 |-③--|
口口口口 |④---|
6
②⑦⑦① |①-②-|
④⑦⑦③ |③-④-|
⑥口口⑤ |⑤-⑥-|
口口口口 |⑦---|
7
①口⑧口 |①-②-|
⑤口口④ |③-④-|
口口②口 |⑤-⑥-|
③⑦口⑥ |⑦-⑧-|
8
口⑦⑦口 |①-②-|
⑤①口④ |③-④-|
口口②口 |⑤-⑥-|
③口口⑥ |⑦---|
9
口口口口 |①-②-|
口口口④ |③-④-|
口①口口
③口②口

⑤口口口
口口⑧口
口⑦口⑥ |⑤-⑥-|
口口口口 |⑦-⑧-|
10
口①口口 |①---|
口口口口 |----|
口口口口
口口口口

口③③口
口③③口
口口口口 |②---|
口②②口 |③---|
11
口③口口 |①---|
①口④② |②---|
①⑤口② |③-④-|
口口⑥口 |⑤-⑥-|
12
⑤口口口 |----|
口①口口 |①-②-|
口口②口 |③-④-|
④口口③ |⑤---|
13
口口口口 |①---|
②③③① |②---|
②⑥口① |③-④-|
口④⑤口 |⑤-⑥-|
14
口口口① |----|
口③口口 |①-②-|
口口④口 |③-④-|
口⑤口② |⑤---|
15
口口⑥⑥ |①---|
①⑤口② |②---|
①口④② |③-④-|
口③口口 |⑤-⑥-|
16
口口⑥口 |--①-|
①⑦口口 |②-③-|
口②口口 |④-⑤-|
④口③⑤ |⑥-⑦-|
17
口口口口 |①---|
②口③① |②---|
②④口① |③-④-|
口⑥⑤口 |⑤-⑥-|
18
口③口① |----|
④口②口 |--①-|
口口口口 |②-③-|
口口口口 |④---|
19
⑤口⑥口 |①---|
口口口口 |--②③|
②③④口 |④-⑤-|
口①①口 |--⑥-|
20
口②口④ |--①-|
口口⑤口 |②-③-|
口⑥口口 |④-⑤-|
口③①口 |⑥---|
21
②口④口 |①---|
口口口口 |--②-|
口口③口 |③--④|
⑤口①① |--⑤-|
22
⑥⑥⑥⑥ |--①-|
口②口口 |②-③-|
⑤③④口 |④-⑤-|
口口口① |⑥---|
23
口⑥口⑤ |①---|
口口口口 |--②③|
口④③② |④-⑤-|
口①①口 |--⑥-|
24
④⑥②口 |--①-|
口口口口 |②-③-|
口口⑤口 |④-⑤-|
口①③口 |⑥---|
25
⑤口口口 |①---|
口口口口 |--②③|
②③④口 |④--⑤|
①口⑥① |--⑥-|
26
口口口口 |--①-|
口①口④ |②-③-|
⑤③②口 |④-⑤-|
口口口⑥ |⑥---|
27
①②③口 |①--②|
①②③口 |--③-|
口口口口 |----|
④口口口 |④---|
28
口口口④ |①--②|
口口口口 |--③-|
口③②① |----|
口③②① |④---|
29
口口口口 |①---|
口①①口 |--②-|
口口口口
②口口口

④口口⑤
口⑥口口
口口⑥③ |③-④-|
口口口口 |⑤-⑥-|
30
③②①口 |--①-|
②口口① |--②-|
①口口② |----|
口①②口 |③---|
31
口③②① |①--②|
口③②① |--③-|
口口口口 |----|
口口口④ |④---|
32
④口口口 |①--②|
口⑥口口 |--③-|
①②③⑤ |--④-|
①②③口 |⑤-⑥-|
33
④口口① |①---|
口口⑥口 |--②-|
口⑥③口 |③-④-|
②口口⑤ |⑤-⑥-|
34
口①②口 |--①-|
①口口② |--②-|
②③③① |----|
口②①口 |③---|
35
⑤口口④ |①--②|
⑤口口④ |--③-|
口口口口 |④---|
口③②① |⑤---|
36
⑤③①⑥ |①-②-|
口④②口 |③-④-|
口口口口 |⑤---|
口口口口 |⑥---|
37
④口口⑤ |①--②|
④口口⑤ |--③-|
口口口口 |④---|
①②③口 |⑤---|
38
⑥①③⑤ |①-②-|
口②④口 |③-④-|
口口口口 |⑤---|
口口口口 |⑥---|
39
⑤口口④ |①--②|
⑤口口④ |--③-|
口口口口 |④---|
口③②① |⑤---|
40
⑤③①⑥ |①-②-|
口④②口 |③-④-|
口口口口 |⑤---|
口口口口 |⑥---|
41
⑨口口⑩ |①②③④|
③口口⑥ |⑤⑥⑦⑧|
⑤⑨⑩② |⑨---|
①⑦⑧④ |⑩---|
42
⑥①③⑤ |①-②-|
口②④口 |③-④-|
口口口口 |⑤---|
口口口口 |⑥---|
43
口口口口 |①②③-|
④口口口 |④-⑤-|
口口⑤口
①②③口

口口口⑥
口口口口
⑦口口⑧ |⑥-⑦-|
口⑨口口 |⑧-⑨-|
44
④口口⑧ |①-②-|
口③⑦口 |③-④-|
口⑥②口 |⑤-⑥-|
⑤口口① |⑦-⑧-|
45
口口口⑨ |①②③-|
④口⑦口 |④-⑤-|
口⑧⑤口 |⑥-⑦-|
⑥①②③ |⑧-⑨-|
46
①②③口 |①②③-|
⑥口口⑦ |④-⑤-|
④⑧口口 |⑥-⑦-|
口口口⑤ |⑧---|
47
口口口口 |①②③-|
④口口口 |④-⑤-|
口口⑤口
①②③口

口口口⑥
口口口口
⑦口口⑧ |⑥-⑦-|
口⑨口口 |⑧-⑨-|
48
④口口⑧ |①-②-|
口③⑦口 |③-④-|
口⑥②口 |⑤-⑥-|
⑤口口① |⑦-⑧-|
49
口口口口 |①②③-|
④口⑦口 |④-⑤-|
口⑧⑤口 |⑥-⑦-|
⑥①②③ |⑧---|
50
口⑤③① |①-②-|
口⑦⑦口 |③-④-|
口口口口 |⑤-⑥-|
口⑥④② |⑦---|
51
口口口口 |①---|
口③③口 |--②-|
①③③② |----|
口口口口 |③---|
52
①①④④ |①--②|
口口口口 |--③-|
⑤⑤口口 |-④--|
②②③③ |⑤---|
53
①①口口 |①--②|
④②②④ |--③-|
口口③③ |----|
口口口口 |④---|
54
④④①① |①--②|
口口口口 |--③-|
口⑤⑤口 |-④--|
③③②② |⑤---|
55
口口口口 |①---|
口①①口 |--②③|
①口口①
口口③②

口口口口
口口⑤口
口口口⑤ |④---|
口④口口 |⑤---|
56
①①④④ |①--②|
口口口口 |--③-|
⑤⑤口口 |-④--|
②②③③ |⑤---|
57
①①口口 |①--②|
④②②④ |--③-|
口口③③ |----|
口口口口 |④---|
58
④④①① |①--②|
口口口口 |--③-|
口⑤⑤口 |-④--|
③③②② |⑤---|
59
口口⑤⑤ |①---|
口①①口 |--②③|
①口口① |④---|
②③④口 |⑤---|
60
口①④口 |①--②|
①口⑤④ |--③-|
②⑤口③ |-④--|
口②③口 |⑤---|
61
①口口④ |①--②|
口①口口 |--③-|
③口②口 |----|
④③口② |④---|
62
口④①口 |①--②|
④⑤口① |--③-|
③口⑤② |-④--|
口③②口 |⑤---|
63
口口口① |①---|
口口①口 |--②③|
口①口口
①口③②

口口⑤⑤
口口口口
口口口口 |④---|
口④口口 |⑤---|
64
口①④口 |①--②|
①口⑤④ |--③-|
②⑤口③ |-④--|
口②③口 |⑤---|
65
①口口④ |①--②|
口①口口 |--③-|
③口②口 |----|
④③口② |④---|
66
口④①口 |①--②|
④⑤口① |--③-|
③口⑤② |-④--|
口③②口 |⑤---|
67
口口⑤① |①---|
口口①⑤ |--②③|
口①口口 |④---|
①④③② |⑤---|
68
口①口口 |①-②-|
①口口口 |③-④-|
⑦⑤③口 |⑤-⑥-|
⑧⑥④② |⑦-⑧-|
69
⑧③⑥① |①-②-|
④⑦②⑤ |③-④-|
口口口口 |⑤-⑥-|
口口口口 |⑦-⑧-|
70
⑦口口⑤ |①-②-|
口⑧⑥口 |③-④-|
口④②口 |⑤-⑥-|
③口口① |⑦-⑧-|
71
⑦口口⑦ |①-②-|
⑥⑦⑦⑤ |③-④-|
④口口③ |⑤-⑥-|
口②①口 |⑦---|
72
口口口口 |①-②-|
口口口口 |③-④-|
⑦⑤③① |⑤-⑥-|
⑧⑥④② |⑦-⑧-|
73
⑧③⑥① |①-②-|
④⑦②⑤ |③-④-|
口口口口 |⑤-⑥-|
口口口口 |⑦-⑧-|
74
⑦口口⑤ |①-②-|
口⑧⑥口 |③-④-|
口④②口 |⑤-⑥-|
③口口① |⑦-⑧-|
75
⑦口口⑦ |①-②-|
⑥⑦⑦⑤ |③-④-|
④⑦⑦③ |⑤-⑥-|
口②①口 |⑦---|

accuracy: 100%
最終更新:2022年04月23日 01:15