アットウィキロゴ
ラブキラ☆スプラッシュ
BEMANI Sound Team "Sota F." feat.いちか

EXTREME

Level: 10.2
BPM: 152
Notes: 833

1
口口口口 |----|
口口口口 |----|
口口口口 |----|
口口口口 |----|
2
⑤①口口 |①②③④|
口口口② |⑤-⑥-|
③口口口
口⑥口④

口口口⑦
⑨⑨⑨⑨
口⑨⑨口 |⑦-⑧-|
口口⑧口 |⑨---|
3
①口口② |①---|
口口口口 |②--③|
①口口②
口③口口

口口⑥口
口口口④
⑦口口口 |-④⑤-|
口口⑤口 |⑥-⑦-|
4
⑧②口④ |①--②|
③口②⑨ |--③-|
口③①口 |④-⑤⑥|
⑤⑥⑦① |⑦-⑧⑨|
5
口口口口 |①--②|
口①②口 |--③-|
①③③②
口口口口

口口口口
④⑥口⑤
口口口口 |-④--|
口④⑤口 |⑤-⑥-|
6
口③⑤① |①-②-|
⑦口口⑦ |③-④-|
⑦口口⑦ |⑤-⑥-|
口④⑥② |⑦---|
7
口⑤口③ |①-②③|
⑨②⑨口 |④-⑤-|
口⑩④⑥ |⑥⑦⑧-|
①⑧⑦① |⑨-⑩-|
8
①④口口 |①-②③|
口①口口 |④-⑤-|
⑤口③口
②⑤口③

⑧口口⑧
口口⑥口
口口口口 |⑥-⑦-|
口口⑦口 |⑧---|
9
⑦①②⑦ |①--②|
③口⑥④ |③-④-|
⑤①②口 |⑤⑥--|
口口⑥④ |⑦---|
10
⑫①口⑫ |①②③④|
⑤⑨⑧④ |⑤⑥⑦⑧|
口⑪②口 |⑨⑩⑪-|
③⑦⑩⑥ |⑫---|
11
⑥①②④ |①---|
①③口② |②---|
口口⑤口 |③-④-|
②⑤③① |⑤-⑥-|
12
口口②⑥ |①---|
口⑤口口 |②-③-|
口③口④ |④-⑤-|
②⑥④① |⑥---|
13
③口口口 |①---|
口口④⑥ |②---|
⑤②①口 |③-④-|
②⑤③① |⑤-⑥-|
14
口口②口 |①---|
口⑤⑥口 |②-③-|
口③④口 |④-⑤-|
②⑥④① |⑥---|
15
②口⑥① |①---|
②⑤口① |②---|
②③④① |③-④-|
②⑤③① |⑤-⑥-|
16
口口口② |①-②-|
③⑦⑧口 |③-④-|
口⑤⑥④ |⑤-⑥-|
③⑦⑤① |⑦-⑧-|
17
①⑤口② |①---|
①口⑦② |②--③|
③④口⑥ |④-⑤-|
②⑥④① |⑥-⑦-|
18
①②⑤口 |①---|
②②⑤⑤ |--②-|
③③④④ |③-④-|
口③④① |⑤---|
19
①口⑤① |①---|
口②⑥⑤ |--②③|
口⑥③口 |④-⑤-|
口④口口 |--⑥-|
20
①⑥⑥② |--①-|
⑤③口⑤ |②-③-|
口口③口 |④-⑤-|
②④④① |⑥---|
21
⑤口口① |①---|
口口④口 |--②-|
②口口口 |③--④|
口③口口 |--⑤-|
22
口⑦⑦③ |--①-|
口⑦⑦① |②-③-|
②口口口 |④-⑤⑥|
⑤口④⑥ |⑦---|
23
口⑥⑤⑤ |①---|
①④口⑤ |--②③|
⑤②③① |④-⑤-|
⑤⑤口口 |--⑥-|
24
口口⑤③ |--①-|
口④口⑤ |②-③④|
⑤②④口 |--⑤-|
口⑤口① |----|
25
口口口口 |①---|
①口口口 |--②③|
口②③①
口口口口

④⑥口⑤
⑥④⑤口
口口口口 |④--⑤|
口口口口 |--⑥-|
26
④口①④ |--①-|
口⑥⑥① |②-③-|
③口口② |④-⑤-|
⑤③②⑤ |⑥---|
27
③②①③ |①--②|
②口口① |--③-|
口④口口 |----|
口②①口 |④---|
28
口②①口 |①--②|
口口④口 |--③-|
②口口① |----|
③②①③ |④---|
29
①口口① |①---|
②口口② |--②-|
口①①口
口口口口

口口口口
口③口口
⑤⑥⑥④ |③-④-|
口口口口 |⑤-⑥-|
30
②口口② |--①-|
口②②口 |--②-|
④③③④ |--③-|
①①①① |④---|
31
⑤③①⑤ |①-②③|
③②④① |-④⑤-|
口口口口
口③①口

口口口口
口口口⑥
口口口口 |----|
口口口口 |⑥---|
32
口③①口 |①-②③|
口口口口 |-④⑤-|
③②④①
⑤③①⑤

口口口⑥
⑦口口口
口口口口 |--⑥-|
口口⑧口 |⑦-⑧-|
33
⑤口口口 |①---|
口口②口 |--②③|
口③口④ |④-⑤-|
⑦①⑥⑦ |⑥-⑦-|
34
②①①② |--①-|
②①①② |--②-|
②①①② |----|
口③③口 |③---|
35
口①②③ |①--②|
口⑤④口 |--③-|
口①②③ |④---|
口④⑤口 |⑤---|
36
①③⑤口 |①-②-|
口口口口 |③-④-|
口⑥口口 |⑤---|
②④口口 |⑥---|
37
口⑤④口 |①--②|
③②①口 |--③-|
口④⑤口 |④---|
③②①口 |⑤---|
38
口⑤③① |①-②-|
口口口口 |③-④-|
⑦口⑥口 |⑤---|
口口④② |⑥-⑦-|
39
口④⑤口 |①--②|
口①②③ |--③-|
口⑤④口 |④---|
口①②③ |⑤---|
40
①③⑤口 |①-②-|
口口口口 |③-④-|
口⑥口口 |⑤---|
②④口口 |⑥---|
41
口⑦口口 |①②③④|
⑤③口① |⑤⑥⑦⑧|
⑥⑧口口
②④口①

⑨口口口
口口⑩⑩
口口⑨⑨ |⑨---|
⑩口口口 |⑩---|
42
口口③① |①-②-|
口口口口 |③-④-|
口口口口
口口④②

口⑤口⑥
口口口口
口口口口 |⑤---|
⑥口口口 |⑥---|
43
④口口口 |①②③-|
口口口③ |④-⑤-|
口口②口
口①口⑤

口⑥口口
⑥口⑦口
口⑧⑨⑦ |⑥-⑦-|
⑧口⑨口 |⑧-⑨-|
44
④口⑧口 |①-②-|
口③口⑦ |③-④-|
②口⑥口 |⑤-⑥-|
口①口⑤ |⑦-⑧-|
45
口口口④ |①②③-|
③口口口 |④-⑤-|
口②口口
⑤口①口

口口⑦口
⑨口口口
口口口⑥ |⑥-⑦-|
口口⑧口 |⑧-⑨-|
46
④口⑤③ |①②③-|
⑨⑥②口 |④-⑤⑥|
⑦①口口 |⑦-⑧-|
⑨口⑧⑧ |⑨---|
47
④口口口 |①②③-|
口口口③ |④-⑤-|
口口②口
口①口⑤

口⑥口口
⑥口⑦口
口⑧⑨⑦ |⑥-⑦-|
⑧口⑨口 |⑧-⑨-|
48
④口⑦口 |①-②-|
口③口⑧ |③-④-|
②口⑥口 |⑤-⑥-|
口①口⑤ |⑦-⑧-|
49
口口口④ |①②③-|
③口口口 |④-⑤-|
口②口口
⑤口①口

口口⑦口
口⑧口口
口口口⑥ |⑥-⑦-|
口口⑧口 |⑧---|
50
口①口③ |①-②-|
口口②口 |③-④-|
口④口口
口①口③

⑤口口口
口⑤口⑥
口口⑥口 |⑤-⑥-|
口⑦⑦口 |⑦---|
51
⑦①⑥口 |①---|
口⑤②⑧ |②-③-|
⑨口④口 |-④⑤⑥|
③口口⑩ |⑦⑧⑨⑩|
52
⑦①⑦① |①--②|
②口②口 |③-④-|
口④③④ |⑤⑥--|
⑥⑤⑥⑧ |⑦-⑧-|
53
口①口口 |①--②|
①③口② |③-④-|
口口②口
④④口口

口⑥⑥⑤
口口口口
⑥口口⑥ |⑤---|
口口口口 |⑥---|
54
口口口口 |①--②|
④①②④ |③-④-|
⑥③口⑥ |⑤⑥--|
②⑤⑦① |⑦---|
55
①①①① |①---|
口②口口 |②-③④|
口①①口
口口④③

口⑦⑦口
口口口⑥
⑦口口⑦ |⑤-⑥-|
口⑤口口 |⑦---|
56
⑧⑥⑥⑦ |①--②|
③②①口 |③-④-|
⑤①②口 |⑤⑥--|
⑦④④口 |⑦-⑧-|
57
④⑤⑥口 |①--②|
口③②① |--③-|
口③②① |--④⑤|
口③②① |⑥---|
58
口口口① |①--②|
④口①口 |③-④-|
口④②①
④②③②

⑥口⑥口
口⑥口⑤
⑦口口⑦ |⑤⑥--|
口口口口 |⑦---|
59
口①口② |①---|
口口③口 |--②③|
口口口口
口口①口

口⑥⑥口
口⑥口⑤
口④⑥口 |④-⑤-|
口⑥⑥口 |⑥---|
60
①口口② |①--②|
③⑦⑦口 |③-④-|
①④⑥② |⑤⑥--|
④⑧⑤⑥ |⑦-⑧-|
61
⑤②②口 |①--②|
①⑥⑥④ |③-④-|
①③口④ |⑤---|
⑥口口⑥ |⑥---|
62
⑤⑥④① |①--②|
②口口⑦ |③-④-|
⑥③①④ |⑤⑥--|
口②⑦口 |⑦---|
63
②⑦⑦口 |①---|
口①③口 |②-③④|
⑦④①⑦ |⑤-⑥-|
⑤口口⑥ |⑦---|
64
②口口① |①--②|
③口④口 |③-④-|
口④口口
口①②口

口口⑦口
口⑥口⑤
⑧口⑥口 |⑤⑥--|
口⑦口口 |⑦-⑧-|
65
①口口① |①--②|
③③③③ |--③-|
口⑥⑤④ |--④⑤|
②口口② |⑥---|
66
②④③① |①--②|
口口⑤口 |--③-|
口⑤口口 |-④--|
②④③① |⑤---|
67
①②⑤⑤ |①---|
①①口③ |--②③|
口口①① |④---|
④④口① |⑤---|
68
⑤口⑫⑪ |①②③④|
③④⑦⑥ |⑤-⑥⑦|
①②⑨⑧ |⑧⑨⑩-|
⑬⑭口⑩ |⑪⑫⑬⑭|
69
⑤⑨⑧⑫ |①②③④|
①⑩⑦③ |⑤-⑥⑦|
②⑪⑥④ |⑧-⑨⑩|
口口口口 |⑪-⑫-|
70
⑥⑦口口 |①②③④|
口口口⑤ |⑤-⑥⑦|
口口④③
口口②①

口口口⑪
⑧⑨口口
⑩⑫⑬口 |⑧⑨⑩-|
口口口口 |⑪-⑫⑬|
71
⑤口口口 |①②③④|
口口口⑦ |⑤-⑥⑦|
口口口⑥
①②③④

口口口⑧
口口口口
⑨⑪⑩口 |⑧-⑨-|
口⑬⑫口 |⑩⑪⑫⑬|
72
⑥②①⑨ |①②③④|
口④③⑧ |⑤-⑥-|
口口口⑦ |⑦⑧⑨-|
⑩⑫⑪⑤ |⑩-⑪⑫|
73
④口⑤⑧ |①②③④|
⑨③⑫⑦ |⑤-⑥⑦|
⑩口②⑥ |⑧-⑨⑩|
⑪口口① |⑪-⑫-|
74
⑥⑥⑤⑦ |①②③④|
口口口口 |⑤-⑥⑦|
口④③口
口②①①

口口口口
⑧⑪⑪⑨
口⑫口口 |⑧⑨⑩-|
⑩口⑬口 |⑪-⑫⑬|
75
③⑦②⑥ |①②③④|
口口口口 |⑤⑥⑦⑧|
⑤口口⑧
口①口④

口口⑬口
⑪口⑬⑩
口⑬⑫口 |⑨⑩⑪⑫|
⑨⑬口口 |⑬---|

accuracy: 100%
最終更新:2022年04月23日 01:29