アットウィキロゴ
キヤロラ衛星の軌跡
工藤吉三(ベイシスケイプ)

EXTREME

LEVEL: 10.4
BPM : 150
Notes(hold): 875(44)

1
口口口口 |----|
口口口口 |----|
口口口口 |----|
口口口口 |----|
2
⑪⑥口⑦ |①②③④|
口⑧⑤⑨ |⑤-⑥⑦|
④口③口 |-⑧⑨-|
②⑩①口 |⑩-⑪-|
3
⑬⑥口⑦ |①②③④|
⑪⑧⑤⑨ |⑤-⑥⑦|
④口③⑫ |-⑧⑨-|
②口①⑩ |⑩⑪⑫⑬|
4
⑪⑥口⑦ |①②③④|
口⑧⑤⑨ |⑤-⑥⑦|
④口③口 |-⑧⑨-|
②⑩①口 |⑩-⑪-|
5
⑥④⑤③ |①-②-|
⑤③⑥④ |③-④-|
①口②口 |⑤-⑥-|
②口①口 |⑦-⑧-|

口口口口
口口口口
⑦口⑧口
⑧口⑦口
6
口口⑥⑪ |①②③④|
口⑤⑦口 |⑤-⑥⑦|
⑩③⑧④ |-⑧⑨-|
口①⑨② |⑩-⑪-|
7
口口⑥⑪ |①②③④|
口⑤⑦⑬ |⑤-⑥⑦|
⑩③⑧④ |-⑧⑨-|
⑫①⑨② |⑩⑪⑫⑬|
8
口口⑥⑪ |①②③④|
口⑤⑦口 |⑤-⑥⑦|
⑩③⑧④ |-⑧⑨-|
口①⑨② |⑩-⑪-|
9
③⑤④⑥ |①-②-|
④⑥③⑤ |③-④-|
口②口① |⑤-⑥-|
口①口② |⑦-⑧-|

口口口口
口口口口
口⑧口⑦
口⑦口⑧
10
⑪⑥口口 |①②③④|
口⑦⑤口 |⑤-⑥⑦|
②⑧③⑩ |-⑧⑨-|
④⑨①口 |⑩-⑪-|
11
⑪⑥口口 |①②③④|
⑬⑦⑤口 |⑤-⑥⑦|
②⑧③⑩ |-⑧⑨-|
④⑨①⑫ |⑩⑪⑫⑬|
12
⑪⑥口口 |①②③④|
口⑦⑤口 |⑤-⑥⑦|
④⑧③⑩ |-⑧⑨-|
②⑨①口 |⑩-⑪-|
13
⑦口⑧⑧ |①②-③|
①口②② |④-⑤⑥|
⑤口⑥⑥ |-⑦⑧-|
③口④④ |⑨⑩⑪⑫|

口口口口
⑨⑩⑫⑪
口口口口
口口口口
14
⑤口口口 |①②③④|
⑪⑫⑩⑨ |-⑤-⑥|
⑥①④口 |-⑦-⑧|
⑧③②⑦ |⑨⑩⑪⑫|
15
口口口⑤ |①②③④|
口⑨口口 |-⑤-⑥|
⑨④①⑥ |-⑦-⑧|
⑦②③⑧ |⑨---|
16
⑤口口口 |①②③④|
①口口口 |-⑤-⑥|
⑥①④口 |-⑦-⑧|
⑧③②⑦ |⑨⑩⑪⑫|

口口口口
⑪⑫⑩⑨
口口口口
口口口口
17
⑧口口⑤ |①②③④|
口口口⑨ |-⑤⑥⑦|
⑥④①⑦ |⑧⑨-⑩|
口②③口 |⑪⑫⑬-|

口口口口
口口口口
口⑬⑫口
⑪口口⑩
18
口③①口 |①②③④|
口②④口 |-⑤-⑥|
⑤⑨⑩⑧ |-⑦-⑧|
⑦⑪口⑥ |⑨⑩⑪-|
19
口③①口 |①②③④|
口②④口 |-⑤-⑥|
⑤口口口 |-⑦-⑧|
⑦口口⑥ |⑨---|

口口⑨口
口⑨口口
口口口⑧
口口口口
20
口口口⑤ |①②③④|
⑨⑩⑫⑪ |-⑤-⑥|
口④①⑥ |-⑦-⑧|
⑦②③⑧ |⑨⑩⑪⑫|
21
口⑪⑫⑭ |①②③④|
⑨⑬⑭⑩ |-⑤⑥⑦|
⑦①④⑧ |⑧⑨⑩⑪|
⑤③②⑥ |⑫⑬⑭-|
22
⑤口口⑤ |--①-|
③③④④ |-②--|
①①②② |③--④|
①④③② |--⑤-|
23
口∨∨口 |①---|
②||口 |②---|
口①①① |③-④-|
口口口口 |⑤---|

④口⑤⑤
口口口③
口③③口
口口口口
24
口口口口 |①---|
②∨∨口 |②---|
口||口 |③-④-|
口①①口 |⑤---|

口口口口
口口口③
④口⑤⑤
口③③口
25
口①―< |①---|
①―<② |②---|
口口口口 |③-④-|
口口口口 |⑤-⑥-|

口③口口
③口口口
④⑥口③
⑥④口⑤
26
口口口口 |①---|
②>―① |②---|
―①口 |③---|
口口口口 |④-⑤-|

口③③口
口口口③
⑤口③口
口④④口
27
口口口③ |①-②-|
口②①口 |③---|
口口口① |④-⑤-|
口口口口 |⑥-⑦-|

口④④口
⑤口口口
口口口⑥
⑦口口口
28
口口口口 |①---|
口口∨∨ |②---|
②口|| |③---|
口口①① |④---|

口③③④
口口口口
口④口口
口口③③
29
①④④口 |①-②-|
∨∨口② |③---|
||①② |④---|
③③口口 |⑤-⑥-|

口口口口
口口口口
口口⑤口
⑤⑤⑥口
30
①口口③ |①-②-|
⑤②④⑧ |③-④-|
⑤⑦⑥⑧ |⑤-⑥⑦|
口⑨⑨口 |⑧-⑨-|
31
①口①口 |①---|
|口②口 |②---|
∧口口口 |③-④-|
口口口口 |⑤-⑥-|

③口⑥口
口⑤口口
④③③口
口口口口
32
口口口口 |①-②-|
①―<口 |③-④-|
口口③口 |⑤---|
①口②口 |⑥---|

口⑤口⑤
④口口口
口口口口
口⑥口⑥
33
口口①口 |①---|
口>―① |②---|
口②口口 |③-④-|
口口口口 |-⑤--|

③③口④
④口口③
口口口⑤
⑤口口口
34
口口口口 |①-②-|
口口口∨ |③-④-|
①④③| |⑤-⑥-|
口②口① |⑦-⑧-|

口⑧⑦口
口⑥⑤口
口口口口
口口口⑤
35
口口口③ |①-②-|
②口口| |③---|
①③①∧ |④-⑤-|
口②口口 |⑥-⑦-|

⑤口口⑥
口④④口
⑥口⑦口
口口口口
36
口口①口 |--①-|
①③②④ |-②--|
③①④② |③--④|
④②③口 |--⑤-|

口口口口
⑤口口口
口⑤口口
口口口⑤
37
①>① |①---|
口>①口 |----|
口口口口 |----|
口口口口 |----|
38
口②③② |----|
口口②口 |----|
口口口口 |----|
口口口口 |②-③-|
39
口口口口 |①②-③|
口⑤口口 |-④-⑤|
①②口③ |--⑥-|
口④口口 |⑦-⑧-|

⑧口口口
口口口口
⑦口⑥口
口口口口
40
口②②① |①②-③|
口④④③ |④-⑤⑥|
口⑥⑥⑤ |-⑦⑧-|
口⑧⑧⑦ |-⑨-⑩|

⑩口口⑨
⑨口口⑩
口口口口
口口口口
41
口③④口 |①-②③|
⑪①①⑩ |④⑤⑥⑦|
⑤⑨⑧② |⑧⑨⑩⑪|
⑦口口⑥ |⑫⑬⑭⑮|

⑬口口⑫
口⑮⑭口
口口口口
口口口口
42
口⑥⑤口 |①②③④|
⑧口口⑦ |⑤⑥⑦⑧|
④⑩⑪③ |⑨⑩⑪⑫|
⑫②①⑨ |⑬⑭⑮-|

⑭口口⑬
口⑮口口
口口口口
口口⑮口
43
口③④口 |①-②③|
⑪口①⑩ |④⑤⑥⑦|
⑤⑨⑧② |⑧⑨⑩⑪|
⑦①口⑥ |⑫⑬⑭⑮|

⑬口口⑫
口⑮⑭口
口口口口
口口口口
44
口⑥⑥口 |①②-③|
口口口⑤ |④-⑤⑥|
口④④① |--⑦⑧|
口②②③ |⑨⑩⑪⑫|

⑦口口⑧
口⑨⑩口
⑪口口⑫
口口口口
45
⑬⑦⑧⑯ |①②③④|
①⑭⑮④ |⑤⑥⑦⑧|
⑪②③⑫ |⑨⑩⑪⑫|
⑨⑤⑥⑩ |⑬⑭⑮⑯|
46
⑬⑦⑧⑯ |①②③④|
①⑭⑮④ |⑤⑥⑦⑧|
⑪②③⑫ |⑨⑩⑪⑫|
⑨⑤⑥⑩ |⑬⑭⑮⑯|
47
⑬⑦⑧⑯ |①②③④|
①⑭⑮④ |⑤⑥⑦⑧|
⑪②③⑫ |⑨⑩⑪⑫|
⑨⑤⑥⑩ |⑬⑭⑮⑯|
48
口口口口 |①-②③|
①口口① |-④⑤⑥|
口②口口 |⑦⑧⑨-|
口口③口 |--⑩-|

∨口口口
|⑩⑩口
⑨口④⑥
⑦⑤口⑧
49
口①①② |①--②|
口口口② |-③④⑤|
②③④口 |⑥-⑦⑧|
口⑤⑥口 |⑨⑩⑪⑫|

⑨口口口
⑩⑦⑧口
⑪口口口
⑫口口口
50
口口>⑤ |----|
③口⑤ |①-②-|
口③④① |③-④-|
口②①∧ |⑤---|

口口口口
口⑤口口
口口口③
口口口口
51
口口口① |①---|
①口①口 |----|
∧口口口 |③---|
口口口口 |----|

口③<口
③口口口
口③口口
口口口口
52
∨①口口 |①---|
|口口口 |----|
①口①口 |----|
口口口口 |②---|

口口②口
口口口口
②口②口
口口口口
53
口口口口 |①---|
①口①口 |②---|
口②口② |③---|
口口口口 |----|

口口口口
∨口口口
|口口口
③口③口
54
口口口口 |----|
口③口③ |①---|
②口②口 |②---|
①①口① |③---|
55
①口①口 |①---|
∧口口口 |----|
口口口口 |②---|
口口口口 |③---|

②③口③
口口②∧
口口口口
口口②口
56
②―<① |----|
①口口口 |①---|
②口口口 |②---|
①口口口 |----|
57
①口①口 |----|
口口∨口 |①---|
口口①口 |②---|
口口口口 |③-④-|

口口口口
②口口口
∨口②口
②口口口

口口口口
口③④③
口口口口
③口口口
58
口口口口 |①---|
口口口口 |--②-|
①∨口∨ |③--④|
口①口① |--⑤⑥|

③口④口
口口⑥口
口⑤口口
④②③②
59
⑥①口① |①---|
①⑥口口 |②③④⑤|
④口⑥⑤ |⑥---|
口②③口 |⑦⑧⑨⑩|

口⑦⑧口
⑨口口⑩
口口口口
口口口口
60
口口口口 |①---|
口口①口 |②③④⑤|
⑤①口④ |⑥---|
①③②⑥ |⑦---|

口口口⑦
口口⑦口
口⑦口口
口口口口
61
口口②口 |①---|
口②③① |②---|
②③①口 |③---|
③①口口 |④---|

口口口口
口口口④
口口④口
口④口口
62
③口口口 |①---|
②③口③ |②---|
①②口① |③---④-|
口口①② |⑤-⑥-⑦-|

口口口口
⑦口口口
⑤口⑥口
口④口口
63
③口口口 |①-②-|
口口①< |③-④-|
口口口口 |⑤-⑥-|
②④口口 |⑦-⑧-|

口⑤口⑦
口∧⑤口
口口口口
口口⑧⑥
64
③①①口 |①-②-|
口③口口 |③-④-|
口口口口 |⑤-⑥-|
④②口口 |⑦-⑧-|

口口⑦⑤
口口⑤口
口口∧口
口⑧⑥口
65
①①④口 |①---|
③口①口 |②---|
口②②③ |③---④-|
口④口口 |--⑤---|

⑤口口口
口口口口
口口口口
口口口⑤
66
口口口① |①-②-|
口口②口 |③-④-|
口③口口 |⑤--⑥|
①―<口 |--⑦⑧|

―④口
⑤口口④
⑤口口口
④口口口

口口⑥口
口⑦⑧口
口口口口
口⑥⑥口
67
①⑨⑫④ |①②③④|
⑤口口⑧ |⑤⑥⑦⑧|
⑪③②⑩ |⑨⑩⑪⑫|
⑦口口⑥ |⑬⑭⑮⑯|

⑬口口⑯
口口口口
口口口口
口⑮⑭口
68
口口口口 |①②③④|
口①②口 |⑤⑥⑦-|
口⑤④口 |⑧-⑨-|
③口口⑥ |⑩-⑪-|

口⑦⑧口
⑦⑪⑪⑧
⑨口口⑩
口⑨⑩口
69
①⑨⑫④ |①②③④|
⑤口口⑧ |⑤⑥⑦⑧|
⑪③②⑩ |⑨⑩⑪⑫|
⑦口口⑥ |⑬⑭⑮⑯|

⑬口口⑯
口口口口
口口口口
口⑮⑭口
70
口口口口 |①②③④|
口①②口 |⑤⑥⑦-|
口⑤④口 |⑧-⑨-|
③口口⑥ |⑩-⑪-|

口⑦⑧口
⑦⑪⑪⑧
⑨口口⑩
口⑩⑨口
71
⑦口口⑧ |①②③④|
⑤⑩⑪⑥ |⑤⑥⑦⑧|
⑨②③⑫ |⑨⑩⑪⑫|
①口口④ |⑬⑭⑮⑯|

口口口口
口口口口
口⑮⑯口
口⑬⑭口
72
⑤②③⑥ |①②③④|
①⑬⑭④ |⑤⑥⑦⑧|
⑨⑮⑯⑫ |⑨⑩⑪⑫|
⑦⑩⑪⑧ |⑬⑭⑮⑯|
73
①②③④ |①②③④|
⑤口口⑥ |⑤-⑥⑦|
⑧口口⑦ |-⑧⑨-|
⑨口口口 |⑩-⑪-|

口⑪⑪口
口口口口
口口口口
口⑩⑩口
74
⑤⑨口⑤ |①②③④|
⑥①③⑥ |-⑤⑥⑦|
⑦②④⑦ |⑧-⑨-|
⑧口⑨⑧ |⑩-⑪-⑫-|

口口⑫<
⑫⑪口
口⑩⑫<
⑫口口
75
口口口口 |----|
口口口口 |----|
口口口口 |----|
口口口口 |----|
76
口口口口 |----|
口口口口 |----|
口口口口 |----|
口口口口 |----|
77
口口①口 |----|
口①口口 |----|
口口①口 |----|
口①口口 |----①-|
最終更新:2022年04月07日 11:46