アットウィキロゴ
Surf on the Light
Tomoyuki Uchida

BASIC

LEVEL: 3
BPM: 160
Notes: 194

1
口口口口 |(160)----|
口口口口 |----|
口口口口 |----|
口口口口 |----|
2
口口口口 |----|
口口口口 |----|
口口口口 |----|
口口口口 |----|
3
口口口口 |①---|
口①①口 |----|
口口口口 |----|
口口口口 |----|
4
口口口口 |①---|
①口口② |----|
口口口口 |②---|
口口口口 |----|
5
口口口口 |①---|
口①①口 |----|
口口口口 |----|
口口口口 |----|
6
口口口口 |①---|
②口口① |----|
口口口口 |②---|
口口口口 |----|
7
口口口口 |①---|
口①①口 |----|
口口口口 |----|
口口口口 |----|
8
口口口口 |①---|
①口口② |----|
口口口口 |②---|
口口口口 |----|
9
口口口口 |①---|
口②②口 |----|
口①①口 |②---|
口口口口 |----|
10
②①①② |①---|
口口口口 |----|
口口口口 |②---|
口口口口 |----|
11
口①口口 |①---|
口口口口 |----|
口口②口 |②---|
口口口口 |----|
12
口口口口 |①---|
②①①② |----|
口口口口 |②---|
口口口口 |----|
13
口口①口 |①---|
口口口口 |----|
口②口口 |②---|
口口口口 |----|
14
口口口口 |①---|
②①①② |----|
口口口口 |②---|
口口口口 |----|
15
口①口口 |①---|
口口口口 |----|
口口②口 |②---|
口口口口 |----|
16
口口口口 |①---|
②①①② |----|
口口口口 |②---|
口口口口 |----|
17
口口口口 |①---|
口②②口 |----|
口①①口 |②---|
口口口口 |----|
18
口①①口 |①---|
口口口口 |----|
口口口口 |----|
口口口口 |----|
19
口口口① |①---|
口口②口 |----|
口口口口 |②---|
口口口口 |----|
20
口口口口 |①---|
②口口口 |----|
口①口口 |②---|
口口口口 |----|
21
口①口口 |①---|
口口②口 |----|
口口口口 |②---|
口口口口 |----|
22
口口口口 |①---|
口口口口 |----|
口①①口 |----|
口口口口 |----|
23
①口口口 |①---|
口②口口 |----|
口口口口 |②---|
口口口口 |----|
24
口口口口 |①---|
口口口② |----|
口口①口 |②---|
口口口口 |----|
25
口口①口 |①---|
口②口口 |----|
口口口口 |②---|
口口口口 |----|
26
口口口口 |①---|
口口口口 |----|
口①①口 |----|
口口口口 |----|
27
口口口口 |①---|
口口口口 |----|
①口口口 |②---|
口②口口 |----|
28
口口口口 |①---|
口口口口 |----|
口①口口 |----|
口口口口 |----|
29
口口口口 |①---|
口口口口 |----|
口口口① |②---|
口口②口 |----|
30
口口口口 |①---|
口口口口 |----|
口口①口 |----|
口口口口 |----|
31
口口口口 |①---|
口口口口 |----|
①口口口 |②---|
口②口口 |----|
32
口口口口 |①---|
口口口口 |----|
口①①口 |----|
口口口口 |----|
33
口口口口 |①---|
口口口口 |----|
口口口① |②---|
口口②口 |----|
34
口口口口 |①---|
口口口口 |----|
口①①口 |----|
口口口口 |----|
35
口口口口 |①---|
口②口口 |----|
①口口口 |②---|
口口口口 |----|
36
口口口口 |①---|
口口口② |----|
口口①口 |②---|
口口口口 |----|
37
口口口口 |①---|
口口②口 |----|
口口口① |②---|
口口口口 |----|
38
口口口口 |①---|
②口口口 |----|
口①口口 |②---|
口口口口 |----|
39
口口口口 |①---|
口②口口 |----|
①口口口 |②---|
口口口口 |----|
40
口口口口 |①---|
口口口口 |----|
口①①口 |----|
口口口口 |----|
41
口口口口 |①---|
口口②口 |----|
口口口① |②---|
口口口口 |----|
42
口口口口 |①---|
口口口口 |----|
口①①口 |----|
口口口口 |----|
43
口口口口 |①---|
口①②③ |②---|
口口口口 |③---|
口口口口 |----|
44
口①①口 |①---|
口口口口 |----|
口口口口 |----|
口口口口 |----|
45
口口口口 |①---|
③②①口 |②---|
口口口口 |③---|
口口口口 |----|
46
口①①口 |①---|
口口口口 |----|
口口口口 |----|
口口口口 |----|
47
①口口口 |①---|
口②②口 |----|
口口口口 |②---|
口口口口 |----|
48
口口口① |①---|
口②②口 |----|
口口口口 |②---|
口口口口 |----|
49
口口口口 |①---|
③口口③ |----|
口①②口 |②---|
口口口口 |--③-|
50
口口口口 |----|
口口口口 |----|
口口口口 |----|
口口口口 |----|
51
口口口口 |①---|
①口口④ |②---|
口②③口 |③---|
口口口口 |④---|
52
口口口① |①---|
口②②口 |----|
口口口口 |②---|
口口口口 |----|
53
口口口口 |①---|
④口口① |②---|
口③②口 |③---|
口口口口 |④---|
54
①口口口 |①---|
口②②口 |----|
口口口口 |②---|
口口口口 |----|
55
口①口口 |①---|
口口②口 |----|
口口口口 |②---|
口口口口 |----|
56
口口口口 |①---|
口口口口 |----|
口①口口 |②---|
口口②口 |----|
57
口口口口 |①---|
口口口口 |----|
①①②② |②---|
口口口口 |----|
58
口口口口 |①---|
口②②口 |----|
口口口口 |②---|
口①①口 |----|
59
口口口口 |①---|
④口口① |②---|
口③②口 |③---|
口口口口 |④---|
60
①口口口 |①---|
口②②口 |----|
口口口口 |②---|
口口口口 |----|
61
口口口口 |①---|
①口口④ |②---|
口②③口 |③---|
口口口口 |④---|
62
口口口① |①---|
口②②口 |----|
口口口口 |②---|
口口口口 |----|
63
口①①口 |①---|
口口口口 |----|
口②②口 |②---|
口口口口 |----|
64
①口口① |①---|
口口口口 |----|
②口口② |②---|
口口口口 |----|
65
口口口口 |①---|
口①①口 |----|
口口口口 |②---|
口②②口 |----|
66
口口口口 |①---|
②口口② |----|
①口口① |②---|
口口口口 |----|
67
①①①① |①---|
口口口口 |----|
口口口口 |----|
口口口口 |----|
68
口口口口 |①---|
口口口口 |②---|
①②③④ |③---|
口口口口 |④---|
69
口口口口 |①---|
④③②① |②---|
口口口口 |③---|
口口口口 |④---|
70
①口口① |(150)①---|
口口口口 |----|
口口口口 |----|
口口口口 |----|
71
口口口口 |①---|
口①口口 |----|
口口口口 |----|
口口口口 |----|
72
口口口口 |(147)①---|
口口口口 |----|
口①口口 |----|
口口口口 |----|
73
口口口口 |(138)①---|
口口①口 |----|
口口口口 |(130)----|
口口口口 |(118)----|
74
口口口口 |(116)①---|
②口口② |(114)----|
口口①口 |(101)②---|
口口口口 |(91)----|
75
口口口口 |(111)①---|
口口口口 |(99)----|
口口口口 |(90)----|
口①①口 |(71)----|
76
口口口口 |(60)①---|
口口①口
口①口口
口口口口

口口口口
口口口口 |--①-|
①①①① |----|
口口口口 |----|

accuracy: 100%
最終更新:2022年06月21日 12:33