アットウィキロゴ
Surf on the Light
Tomoyuki Uchida

ADVANCED

LEVEL: 5
BPM: 160
Notes: 349

1
口口口口 |(160)----|
口口口口 |----|
口口口口 |----|
口口口口 |----|
2
口口口口 |----|
口口口口 |----|
口口口口 |----|
口口口口 |----|
3
口口口① |①---|
口口口② |--②-|
口口口③ |----|
口口口口 |③---|
4
口口口口 |--①-|
口③口口 |----|
口口口口 |②---|
口②口① |③---|
5
①口口口 |①---|
②口口口 |--②-|
③口口口 |----|
口口口口 |③---|
6
口口口口 |--①-|
口口③口 |----|
口口口口 |②---|
①口②口 |③---|
7
口口口① |①---|
口口口② |--②-|
口口口③ |----|
口口口口 |③---|
8
口口口口 |--①-|
口③口口 |----|
口口口口 |②---|
口②口① |③---|
9
口口口口 |①---|
口口口口 |----|
口①①口 |----|
口口口口 |----|
10
口口口口 |①---|
②口口② |----|
①口口① |②---|
口口口口 |----|
11
①口口口 |①---|
口②口口 |--②-|
口口③口 |----|
口口口口 |③---|
12
口口口口 |--①-|
③口口③ |----|
口口口口 |②---|
口②②① |③---|
13
口口口① |①---|
口口②口 |--②-|
口③口口 |----|
口口口口 |③---|
14
口口口口 |--①-|
③口口③ |----|
口口口口 |②---|
①②②口 |③---|
15
①口口口 |①---|
口②口口 |--②-|
口口③口 |----|
口口口口 |③---|
16
口口口口 |--①-|
口③③口 |----|
口口口口 |②---|
口②②① |③---|
17
口口口口 |①---|
口口口口 |----|
口①①口 |----|
口口口口 |----|
18
①口口① |①---|
口②②口 |----|
口②②口 |----|
口口口口 |②---|
19
①②③④ |①---|
口口口口 |②---|
口口口口 |③---|
口口口口 |④---|
20
口口口口 |①---|
④③②① |②---|
口口口口 |③---|
口口口口 |④---|
21
③口口② |①---|
口口口口 |--②-|
口①①口 |----|
口口口口 |③---|
22
口口口口 |①---|
口口口口 |----|
口①①口 |----|
口口口口 |----|
23
④③②① |①---|
口口口口 |②---|
口口口口 |③---|
口口口口 |④---|
24
口口口口 |①---|
①②③④ |②---|
口口口口 |③---|
口口口口 |④---|
25
②④口口 |①---|
口口③口 |--②-|
口①①口 |----|
口口口口 |③-④-|
26
口口口口 |----|
口口口口 |----|
口口口口 |----|
口口口口 |----|
27
口③④口 |--①-|
口口②⑥ |②-③-|
口①口口 |④--⑤|
口⑤口口 |--⑥-|
28
口口口口 |--①-|
④⑤⑥口 |②-③-|
口①②③ |--④-|
口口口口 |⑤-⑥-|
29
口口口口 |----|
口口口③ |①-②-|
口口④口 |----|
口①②口 |③-④-|
30
口口口口 |----|
口口口口 |①-②-|
①口口口 |----|
口②口口 |----|
31
口③④口 |--①-|
口口②⑥ |②-③-|
口①口口 |④--⑤|
口⑤口口 |--⑥-|
32
①口口口 |--①-|
口②⑤口 |②---|
口④口口 |--③-|
口口③口 |④-⑤-|
33
口口④口 |----|
口②口③ |①-②-|
①口口口 |----|
口口口口 |③-④-|
34
口口口口 |----|
口口口口 |----|
口口口口 |----|
口口口口 |----|
35
口④③口 |--①-|
⑥②口口 |②-③-|
口口①口 |④--⑤|
口口⑤口 |--⑥-|
36
口口口口 |--①-|
口⑥⑤④ |②-③-|
③②①口 |--④-|
口口口口 |⑤-⑥-|
37
口口口口 |----|
③口口口 |①-②-|
口④口口 |----|
口②①口 |③-④-|
38
口口口口 |----|
口口口口 |①-②-|
口口口① |----|
口口②口 |----|
39
口④③口 |--①-|
⑥②口口 |②-③-|
口口①口 |④--⑤|
口口⑤口 |--⑥-|
40
口口口① |--①-|
口⑤②口 |②---|
口口④口 |--③-|
口③口口 |④-⑤-|
41
③口口口 |----|
口④②口 |①-②-|
口口口① |----|
口口口口 |③-④-|
42
口口口① |----|
口口②口 |----|
口③口口 |①-②-|
④口口口 |③-④-|
43
口口⑦口 |--①-|
②口⑤口 |②-③-|
④口③口 |④-⑤-|
⑥口①口 |⑥-⑦-|
44
①口口口 |①--②|
口口口② |--③-|
③口口口 |--④-|
口口④④ |----|
45
口⑦口口 |--①-|
口⑤口② |②-③-|
口③口④ |④-⑤-|
口①口⑥ |⑥-⑦-|
46
⑤口口① |①--②|
②④口口 |--③-|
口口口③ |----|
口口口口 |④-⑤-|
47
④口口② |----|
口③①口 |①-②-|
口口口口 |----|
口口口口 |③-④-|
48
口口口口 |----|
口口⑤口 |--①-|
口④③口 |②-③-|
口②①口 |④-⑤-|
49
④口口③ |----|
口②口口 |①-②-|
①口口口 |--③-|
口口口口 |--④-|
50
口口口口 |--①-|
口口口口 |②---|
②②①①
口口口口

口③口口
口口④口
口口口⑤ |--③-|
口口口口 |④-⑤-|
51
口口口口 |----|
⑤①口口 |①---|
④①口口 |②-③-|
口③②口 |④-⑤-|
52
口①④口 |①--②|
口⑤口② |--③-|
⑥口口口 |--④-|
口③③口 |⑤-⑥-|
53
口口口口 |----|
口口①⑤ |①---|
口口①④ |②-③-|
口②③口 |④-⑤-|
54
口⑤①⑥ |①--②|
②口口④ |--③-|
口口口口 |--④-|
口③③口 |⑤-⑥-|
55
口⑤口④ |----|
口③口口 |①-②-|
①口②口 |--③-|
口口口口 |④-⑤-|
56
口口口口 |----|
口④⑤口 |--①-|
口②③口 |②-③-|
口口①口 |④-⑤-|
57
口①⑤口 |①--②|
口⑥口④ |--③-|
口口口② |--④-|
口③口口 |⑤-⑥-|
58
②口口② |----|
口口③口 |①---|
口口口④ |②---|
口①①口 |③-④-|
59
口口口口 |----|
⑤①口口 |①---|
④①口口 |②-③-|
口③②口 |④-⑤-|
60
口①④口 |①--②|
口⑤口② |--③-|
⑥口口口 |--④-|
口③③口 |⑤-⑥-|
61
口口口口 |----|
口口①⑤ |①---|
口口①④ |②-③-|
口②③口 |④-⑤-|
62
⑤⑤①③ |①---|
口口④口 |②---|
口②②口 |③---|
口口口口 |④-⑤-|
63
口口④④ |----|
口③口口 |①-②-|
口口②① |----|
口口口口 |③-④-|
64
④④口口 |----|
口口③口 |①-②-|
①②口口 |----|
口口口口 |③-④-|
65
口口④④ |----|
口③口口 |①-②-|
口口口口 |----|
口②①口 |③-④-|
66
口口③③ |----|
口②②口 |①---|
①①口口 |②---|
口口口口 |③---|
67
①口口口 |①--②|
①口口② |--③-|
③口口② |----|
③口口口 |----|
68
口口④④ |①---|
口口口③ |②---|
口口②② |③---|
口口口① |④---|
69
①口口口 |①---|
②②口口 |②---|
③口口口 |③---|
④④口口 |④---|
70
口口口口 |(150)①---|
口①①口 |----|
口①①口
口口口口

口口③口
②口口口
口④口口 |--②-|
口口口口 |③-④-|
71
口④口口 |----|
口口口③ |①-②-|
口口⑤① |--③-|
口②口口 |④-⑤-|
72
口口口口 |(147)----|
⑤口口口 |--①-|
口③④口 |②-③-|
①口口② |④-⑤-|
73
口口口口 |(138)①---|
口④⑤① |--②-|
②口③口 |(130)③---|
口口口口 |(118)--④⑤|
74
口①口口 |(116)①---|
口口口口 |(114)②---|
口口口口
口②②口

④④口口
口口口③
口口口③ |(101)③---|
口口口口 |(91)④---|
75
口口口口 |(111)①---|
口口口口 |(99)----|
①①①① |(90)----|
口口口口 |(71)----|
76
口口①口 |(60)①---|
口口口① |--②-|
口口口口 |----|
②②②② |----|

accuracy: 100%
最終更新:2022年06月21日 12:33