アットウィキロゴ
Surf on the Light
Tomoyuki Uchida

EXTREME

LEVEL: 10.0
BPM: 160
Notes: 709

1
口口口口 |(160)----|
口口口口 |----|
口口口口 |----|
口口口口 |----|
2
①口口① |----|
口口口口 |----|
①口口① |----|
口口口口 |①---|
3
口①①口 |①---|
①②口① |--②-|
口③口口 |----|
口口口口 |③---|
4
③口口口 |--①-|
口口口口 |----|
口口口口 |②---|
②①口口 |③---|
5
口①口口 |①---|
口②口口 |--②-|
口③口口 |----|
口口口口 |③---|
6
口口③口 |--①-|
口口口口 |----|
口口口口 |②---|
口①②口 |③---|
7
口口口① |①---|
口①①② |--②-|
口口口③ |----|
口口口口 |③---|
8
口口口口 |--①-|
口③口口 |----|
口口口口 |②---|
口口②① |③---|
9
口口口口 |①---|
口口④④ |--②-|
③口口② |③---|
①①口口 |--④-|
10
口口口口 |①---|
①①口口 |②--③|
口③口②
口口口口

⑥④④口
口⑥⑤口
口口⑥口 |④-⑤-|
口口口⑥ |⑥---|
11
⑤③③① |①---|
④⑤⑤① |②-③-|
②口口口 |④---|
①①口口 |⑤---|
12
⑤口④口 |①-②-|
⑤口④口 |③---|
口②②口 |④---|
①③④⑤ |⑤---|
13
⑤③③① |①---|
④⑤⑤① |②-③-|
②口口口 |④---|
①口口口 |⑤---|
14
⑤口④口 |①-②-|
⑤口④口 |③---|
口②②口 |④---|
①③④⑤ |⑤---|
15
⑤③③① |①---|
④⑤⑤① |②-③-|
②口口口 |④---|
①口口口 |⑤---|
16
口口④口 |①-②-|
⑤⑤④口 |③---|
口②②口 |④---|
①③④⑤ |⑤---|
17
口口口口 |①---|
口口口口 |②---|
②①口①
①口口口

④口⑤口
③口口口
口口口⑤ |③---|
口口口口 |④-⑤-|
18
⑥口口① |①---|
⑥①⑤口 |②--③|
口③①⑥ |④-⑤-|
①②④⑥ |⑥---|
19
口口口口 |①---|
口口口② |②---|
②口①口
①①口口

④口③口
③口口口
口口⑤口 |③---|
口口口口 |④-⑤-|
20
口④③② |①-②-|
口⑦⑥口 |③-④-|
口口口口 |⑤-⑥-|
①③⑤⑦ |⑦---|
21
⑤③③口 |①---|
④⑤⑤口 |②-③-|
②口①① |④---|
①口口口 |⑤---|
22
口口口口 |①---|
③口口④ |②-③④|
口①①口
①②口口

⑤⑦⑧⑥
口⑨⑩口
口⑪⑫口 |⑤⑥⑦⑧|
口口口口 |⑨⑩⑪⑫|
23
④口③口 |①---|
③口口② |②---|
②⑤口⑤ |③---|
①①口口 |④-⑤-|
24
口③口③ |①---|
口⑥⑤口 |②-③-|
口口口口 |④-⑤-|
①②④⑥ |⑥---|
25
口③③口 |①---|
口口口口 |②-③-|
②口①①
①口口口

⑤口口口
④口⑥口
口口口⑥ |④---|
口⑤⑤口 |⑤-⑥-|
26
③⑤⑥④ |----|
①⑦⑧② |--①②|
口⑨⑩口 |③④⑤⑥|
口口口口 |⑦⑧⑨⑩|
27
⑦口⑧⑤ |①-②-|
⑤口口③ |③-④-|
③口口④ |⑤--⑥|
①①⑥② |⑦-⑧-|
28
⑦口⑦⑧ |①-②-|
⑤口⑥口 |③-④-|
③②③④ |⑤-⑥-|
①口口口 |⑦-⑧-|
29
⑤口口口 |①---|
④口口口 |②-③-|
②口②⑤ |④---|
①口③⑥ |⑤-⑥-|
30
⑤口口口 |①---|
④口口口 |②-③-|
②口②口 |④---|
①口③口 |⑤---|
31
⑦口⑧⑤ |①-②-|
⑤口口③ |③-④-|
③口口④ |⑤--⑥|
①①⑥② |⑦-⑧-|
32
⑥②⑦⑥ |①-②-|
④口口⑤ |③---|
③口③口 |④-⑤-|
①口口口 |⑥-⑦-|
33
⑤口口口 |①---|
④口⑥口 |②-③-|
②口③⑤ |④---|
①口口② |⑤-⑥-|
34
④⑥⑦⑤ |①---|
②⑧⑨③ |--②③|
口⑩⑪口 |④⑤⑥⑦|
口①①口 |⑧⑨⑩⑪|
35
⑦口⑧⑤ |①-②-|
⑤口口③ |③-④-|
③口口④ |⑤--⑥|
①①⑥② |⑦-⑧-|
36
⑦口⑦⑧ |①-②-|
⑤口⑥口 |③-④-|
③②③④ |⑤-⑥-|
①口口口 |⑦-⑧-|
37
⑤口口口 |①---|
④口口口 |②-③-|
②口②⑤ |④---|
①口③⑥ |⑤-⑥-|
38
⑤口口口 |①---|
④口口口 |②-③-|
②口②口 |④---|
①口③口 |⑤---|
39
⑦口⑧⑤ |①-②-|
⑤口口③ |③-④-|
③口口④ |⑤--⑥|
①①⑥② |⑦-⑧-|
40
⑥②⑦⑥ |①-②-|
④口口⑤ |③---|
③口③口 |④-⑤-|
①口口口 |⑥-⑦-|
41
⑤口口⑤ |①---|
④口⑥口 |②-③-|
②口③口 |④---|
①口口② |⑤-⑥-|
42
口口②口 |①---|
口口口③ |----|
口口④口 |②-③-|
口①①⑤ |④-⑤-|
43
⑥⑦⑧口 |①-②-|
④②③⑤ |③-④-|
②④⑤③ |⑤-⑥-|
口①①口 |⑦-⑧-|
44
口口口① |①--②|
口①口口 |--③-|
③口口② |--④-|
④②③口 |----|
45
口⑦⑥⑤ |--①-|
④②①③ |②-③-|
②④③① |④-⑤-|
口口口口 |⑥-⑦-|
46
①口口口 |①--②|
口口①口 |--③-|
②口口③
口③②口

口④口⑤
④口⑤口
口口口口 |----|
口口口口 |④-⑤-|
47
④口③口 |----|
口④口③ |①-②-|
口②口① |----|
②口①口 |③-④-|
48
口口口⑤ |----|
④口⑤③ |--①-|
②④③① |②-③-|
口②①口 |④-⑤-|
49
口④④口 |----|
④口③④ |①-②-|
①③②口 |--③-|
口①口② |--④-|
50
②口⑦① |--①-|
口②⑧⑦ |②---|
⑥⑧②⑤ |③④⑤⑥|
①④③② |⑦-⑧-|
51
①①⑥④ |①---|
②口口口 |②---|
③口⑤③ |③-④-|
⑤口②② |⑤-⑥-|
52
①①⑥口 |①--②|
③①⑦② |③-④-|
⑤④⑧④ |⑤-⑥-|
⑦口口② |⑦-⑧-|
53
①口⑥④ |①---|
②口口② |②---|
③口⑤③ |③-④-|
⑤口口② |⑤-⑥-|
54
①①口⑦ |①--②|
③①⑧② |③-④-|
⑤④口④ |⑤-⑥-|
⑦口⑥② |⑦-⑧-|
55
①口口口 |①---|
②口口② |②-③-|
④口③⑥ |④-⑤-|
⑥口⑦⑤ |⑥-⑦-|
56
①口⑦口 |①---|
②口③⑥ |②-③-|
④口⑤口 |④-⑤-|
⑥口口④ |⑥-⑦-|
57
①②口① |①--②|
③口口⑦ |③-④-|
⑤②⑥① |⑤-⑥-|
⑦④④⑧ |⑦-⑧-|
58
①②①② |①---|
口口口口 |②---|
口口口口
口口口口

口口⑦口
口口⑧⑦
⑥⑧口⑤ |③④⑤⑥|
口④③口 |⑦-⑧-|
59
①①⑥④ |①---|
②口口口 |②---|
③口⑤③ |③-④-|
⑤口②② |⑤-⑥-|
60
①①⑥口 |①--②|
③①⑦② |③-④-|
⑤④⑧④ |⑤-⑥-|
⑦口口② |⑦-⑧-|
61
①口⑥④ |①---|
②口口② |②---|
③口⑤③ |③-④-|
⑤口口② |⑤-⑥-|
62
①①口③ |①---|
②①⑤③ |②---|
③④⑤② |③---|
④④口② |④-⑤-|
63
①口②口 |①---|
②⑤⑥口 |②-③-|
④⑤⑥③ |④---|
⑤口口口 |⑤-⑥-|
64
①口⑥口 |①---|
②⑤⑥② |②-③-|
④⑤口口 |④---|
⑤口③口 |⑤-⑥-|
65
①⑤⑤⑥ |①---|
②口口⑥ |②-③-|
④口口② |④---|
⑤③口口 |⑤-⑥-|
66
①口口口 |①---|
②④口④ |②---|
③③口③ |③---|
④②口② |④---|
67
①①口① |①--②|
③⑦⑥⑤ |③-④-|
⑤口②④ |⑤⑥⑦-|
⑧⑧②④ |⑧---|
68
①⑤④③ |①---|
②口口口 |②---|
③①口② |③④⑤-|
⑥⑥口口 |⑥---|
69
①口③口 |①---|
②④①口 |②-③④|
口①口口
口口口①

⑧口口⑨
口口口口
口口⑤口 |⑤⑥⑦-|
口⑥⑦口 |⑧-⑨-|
70
口口口口 |(150)①---|
①口口① |----|
口口口口
①口口①

口口口③
口口②④
口口口口 |--②-|
口口口口 |③-④-|
71
口④⑥口 |①-②-|
③口⑤⑦ |③-④-|
口②口口 |--⑤-|
①口④③ |⑥-⑦-|
72
④口口口 |(147)①-②-|
口③⑧口 |③-④-|
②⑦口⑥ |⑤-⑥-|
⑤①④口 |⑦-⑧-|
73
④口口口 |(138)①-②-|
①③⑦④ |③-④-|
口⑤②⑥ |(130)⑤---|
口口口① |(118)--⑥⑦|
74
③口口① |(116)①-②-|
②口口口 |(114)③---|
①口口口
口口口③

口⑥口口
⑥口口④
⑤口口口 |(101)④-⑤-|
④口口口 |(91)⑥---|
75
④口口口 |(111)①-②-|
③口口口 |(99)③-④-|
②口口①
①口①口

⑧⑤⑥⑦
口口口口
口口口口 |(90)⑤----------------------------------⑥------------------------------------|
口口口口 |(71)⑦----------------------⑧------------------------|
76
口口①口 |(60)①---|
口①口① |--②-|
①口口口 |----|
②②②② |----|

accuracy: 100%
最終更新:2022年06月21日 12:35