アットウィキロゴ
COSMIC SYMPHONY
OSTER project

BASIC

LEVEL: 3
BPM: 280
Notes: 267

1
口口口口 |----|
口口口口 |----|
口口口口 |----|
口口口口
2
口口口口 |①---|
口口口口 |----|
口口口口 |----|
口①口口
3
口口口口 |①---|
口口口口 |----|
口口口口 |----|
口口①口
4
口口口口 |①---|
口②②口 |----|
口口口口 |②---|
口①口口
5
口口口口 |----|
口口口口 |----|
口口口口 |----|
口口口口
6
口口口口 |①---|
①口口① |----|
口口口口 |----|
口口口口
7
①口口① |①---|
口口口口 |----|
口口口口 |----|
口口口口
8
口①①口 |①---|
口口口口 |----|
口口口口 |----|
口口口口
9
口口口口 |①---|
口①①口 |----|
口口口口 |----|
口口口口
10
口口口口 |①---|
①口口① |----|
口口口口 |----|
口口口口
11
①口口① |①---|
口口口口 |----|
口口口口 |----|
口口口口
12
口①①口 |①---|
口口口口 |----|
口口口口 |----|
口口口口
13
口口口口 |①---|
口①①口 |----|
口口口口 |----|
口口口口
14
①口口口 |①---|
①口口口 |----|
口口口口 |----|
口口口口
15
口①口口 |①---|
口①口口 |----|
口口口口 |----|
口口口口
16
口口①口 |①---|
口口①口 |----|
口口口口 |----|
口口口口
17
口口口① |①---|
口口口① |----|
口口口口 |----|
口口口口
18
口口口口 |①---|
口①口口 |----|
口口①口 |----|
口口口口
19
口口口口 |①---|
口口①口 |----|
口①口口 |----|
口口口口
20
口口口口 |①---|
口①口口 |----|
口口①口 |----|
口口口口
21
①口口① |①---|
口口口口 |----|
口口口口 |----|
口口口口
22
口口口口 |①---|
①口口口 |----|
口口口口 |----|
口口口口
23
口口口口 |①---|
口①口口 |----|
口口口口 |----|
口口口口
24
口口口口 |①---|
口口①口 |----|
口口口口 |----|
口口口口
25
口口口口 |①---|
口口口口 |----|
口口口① |----|
口口口口
26
口口口口 |①---|
口口口① |----|
口口口口 |----|
口口口口
27
口口口口 |①---|
口口口口 |----|
口口①口 |----|
口口口口
28
口口口口 |①---|
口①口口 |----|
口口口口 |----|
口口口口
29
口口口口 |①---|
②口口② |----|
①口口口 |②---|
口口口口
30
口口口口 |----|
口口口口 |----|
口口口口 |----|
口口口口
31
口口口口 |----|
口口口口 |----|
口口口口 |----|
口口口口
32
口口口口 |----|
口口口口 |----|
口口口口 |----|
口口口口
33
口口口口 |----|
口口口口 |----|
口口口口 |----|
口口口口
34
口口口口 |①---|
口口口口 |----|
口口口口 |----|
口口①口
35
口口口口 |----|
口口口口 |----|
口口口口 |----|
口口口口
36
口口口口 |①---|
口口口口 |----|
口口口口 |----|
口①口口
37
口口口口 |----|
口口口口 |----|
口口口口 |----|
口口口口
38
口口口口 |①---|
口口口口 |----|
口①口口 |----|
口口口口
39
口口口口 |----|
口口口口 |----|
口口口口 |----|
口口口口
40
口口口口 |①---|
口口口口 |----|
口口①口 |----|
口口口口
41
口口口口 |----|
口口口口 |----|
口口口口 |----|
口口口口
42
口口口口 |①---|
口①①口 |----|
口口口口 |----|
口口口口
43
口口口口 |----|
口口口口 |----|
口口口口 |----|
口口口口
44
①口口口 |①---|
口口口口 |----|
口口口口 |----|
口口口口
45
口口口口 |----|
口口口口 |----|
口口口口 |----|
口口口口
46
口口口① |①---|
口口口口 |----|
口口口口 |----|
口口口口
47
口口口口 |----|
口口口口 |----|
口口口口 |----|
口口口口
48
口口口口 |①---|
口口口口 |----|
口①①口 |----|
口口口口
49
口口口口 |----|
口口口口 |----|
口口口口 |----|
口口口口
50
口口口口 |①---|
①口口口 |----|
口口口口 |----|
口口口口
51
口口口口 |①---|
口①口口 |----|
口口口口 |----|
口口口口
52
口口口口 |①---|
口口①口 |----|
口口口口 |----|
口口口口
53
口口口口 |①---|
口口口① |----|
口口口口 |----|
口口口口
54
口口口口 |①---|
口口口口 |----|
口口口① |----|
口口口口
55
口口口口 |①---|
口口口口 |----|
口口①口 |----|
口口口口
56
口口口口 |①---|
口口口口 |----|
口①口口 |----|
口口口口
57
口口口口 |①---|
口口口口 |----|
①口口口 |----|
口口口口
58
口口口口 |①---|
①口口口 |----|
口口口口 |----|
口口口口
59
口①口口 |①---|
口口口口 |----|
口口口口 |----|
口口口口
60
口口①口 |①---|
口口口口 |----|
口口口口 |----|
口口口口
61
口口口口 |①---|
口口口① |----|
口口口口 |----|
口口口口
62
口口口口 |①---|
口口口口 |----|
口①①口 |----|
口口口口
63
口口口口 |①---|
口①①口 |----|
口口口口 |----|
口口口口
64
口①①口 |①---|
口口口口 |----|
口口口口 |----|
口口口口
65
①口口① |①---|
口口口口 |----|
口口口口 |----|
口口口口
66
口口口口 |①---|
口①口口 |----|
口口口口 |----|
口口口口
67
口口口口 |①---|
口口口① |----|
口口口口 |----|
口口口口
68
口口口口 |①---|
①口口口 |----|
口口口口 |----|
口口口口
69
口口口口 |①---|
口口①口 |----|
口口口口 |----|
口口口口
70
口口口口 |①---|
口口口口 |----|
口口口口 |----|
口①①口
71
口口口口 |①---|
口口口口 |----|
①口口① |----|
口口口口
72
②口口② |①---|
口①①口 |----|
口口口口 |----|
口口口口 |②---|

口口口口 |----|
口口口口 |----|
口口口口 |----|
口口口口
73
口口口口 |----|
口②口口 |①---|
口①①口 |----|
口口口口 |②---|

口口口口 |----|
口口③口 |③---|
口口口口 |----|
口口口口
74
②口①口 |①---|
口口口口 |----|
口口口口 |----|
口口口口 |②---|

口口口口 |----|
口口口口 |----|
口口口口 |----|
口口口口
75
口口口口 |----|
口口②口 |①---|
口①①口 |----|
口口口口 |②---|

口口口口 |----|
口③口口 |③---|
口口口口 |----|
口口口口
76
口①口② |①---|
口口口口 |----|
口口口口 |----|
口口口口 |②---|

口口口口 |----|
口口口口 |----|
口口口口 |----|
口口口口
77
①①口口 |①---|
口口口口 |----|
口口口口 |----|
口口口口
78
口口口口 |①---|
口口口口 |----|
口①①口 |----|
口口口口
79
口口①① |①---|
口口口口 |----|
口口口口 |----|
口口口口
80
口口口口 |①---|
口口口口 |----|
口①①口 |----|
口口口口
81
①口口① |①---|
口口口口 |----|
口口口口 |----|
口口口口
82
口口口口 |①---|
①口口① |----|
口口口口 |----|
口口口口
83
口口口口 |①---|
口口口口 |----|
①口口① |----|
口口口口
84
口口口口 |①---|
口口口口 |----|
口口口口 |----|
①口口①
85
口口口口 |①---|
口口口口 |----|
口口口口 |----|
口①①口
86
口口口口 |①---|
口口口口 |----|
①口口口 |----|
口口口口
87
口口口口 |①---|
口口口口 |----|
口口口① |----|
口口口口
88
口口口口 |①---|
①口口口 |----|
口口口口 |----|
口口口口
89
口口口口 |①---|
口口口① |----|
口口口口 |----|
口口口口
90
口①口口 |①---|
口口口口 |----|
口口口口 |----|
口口口口
91
口口口口 |①---|
口口①口 |----|
口口口口 |----|
口口口口
92
口口口口 |①---|
口口口口 |----|
口①口口 |----|
口口口口
93
口口口口 |①---|
口口口口 |----|
口口口口 |----|
口口①口
94
口口口口 |①---|
口口口口 |----|
口①①口 |----|
口口口口
95
①口口口 |①---|
①口口口 |----|
口口口口 |----|
口口口口
96
口口口口 |①---|
口口口口 |----|
口①①口 |----|
口口口口
97
口口口① |①---|
口口口① |----|
口口口口 |----|
口口口口
98
口口口口 |①---|
口口口口 |----|
口①①口 |----|
口口口口
99
①口口口 |①---|
口①口口 |----|
口口口口 |----|
口口口口
100
口口口口 |①---|
口口口口 |----|
口①①口 |----|
口口口口
101
口口口① |①---|
口口①口 |----|
口口口口 |----|
口口口口
102
口①①口 |①---|
口口口口 |----|
口口口口 |----|
口口口口
103
口口口口 |①---|
口①①口 |----|
口口口口 |----|
口口口口
104
口口口口 |①---|
口口口口 |----|
口①①口 |----|
口口口口
105
口口口口 |①---|
口口口口 |----|
口口口口 |----|
口①①口
106
口口口口 |①---|
口口口口 |----|
口口口口 |----|
①口口①
107
口①口口 |①---|
口口①口 |----|
口口口口 |----|
口口口口
108
口口口口 |①---|
口口口口 |----|
口口口口 |----|
①口口①
109
口口①口 |①---|
口①口口 |----|
口口口口 |----|
口口口口
110
①口口口 |①---|
口口口口 |----|
口口口口 |----|
口口口口
111
口口口口 |①---|
口①口口 |----|
口口口口 |----|
口口口口
112
口口口口 |①---|
口口口口 |----|
口口①口 |----|
口口口口
113
口口口口 |①---|
口口口口 |----|
口口口口 |----|
口口口①
114
口口口① |①---|
口口口口 |----|
口口口口 |----|
口口口口
115
口口口口 |①---|
口口①口 |----|
口口口口 |----|
口口口口
116
口口口口 |①---|
口口口口 |----|
口①口口 |----|
口口口口
117
口口口口 |①---|
口口口口 |----|
口口口口 |----|
①口口口
118
口①口口 |①---|
口口口口 |----|
口口口口 |----|
口口口口
119
口口口口 |①---|
口口①口 |----|
口口口口 |----|
口口口口
120
口口口口 |①---|
口口口口 |----|
口①口口 |----|
口口口口
121
口口口口 |①---|
口口口口 |----|
口口口口 |----|
口口①口
122
口口口口 |①---|
口口口① |----|
口口口① |----|
口口口口
123
口口口口 |①---|
①口口口 |----|
①口口口 |----|
口口口口
124
口口口口 |①---|
口口口口 |----|
口口口口 |----|
口①①口
125
口①①口 |①---|
口①①口 |----|
口口口口 |----|
口口口口
126
①口口口 |①---|
口口口口 |----|
口口口口 |----|
口口口口
127
口口口口 |----|
口口口口 |----|
口口口口 |----|
口口口口
128
口口口口 |①---|
口口口① |----|
口口口口 |----|
口口口口
129
口口口口 |----|
口口口口 |----|
口口口口 |----|
口口口口
130
口口口口 |①---|
口口口口 |----|
①口口口 |----|
口口口口
131
口口口口 |----|
口口口口 |----|
口口口口 |----|
口口口口
132
口口口口 |①---|
口口口口 |----|
口口口口 |----|
口口口①
133
口口口口 |①---|
口口口口 |----|
口①①口 |----|
口口口口
134
①口口口 |①---|
口口口口 |----|
口口口口 |----|
口口口口
135
口口口口 |①---|
口口口口 |----|
口①口口 |----|
口口口口
136
口口①口 |①---|
口口口口 |----|
口口口口 |----|
口口口口
137
口口口口 |①---|
口口口口 |----|
口口口① |----|
口口口口
138
口口口口 |①---|
口口口口 |----|
①①口口 |----|
口口口口
139
口口口口 |①---|
口口口口 |----|
口口①① |----|
口口口口
140
口口口口 |①---|
①①口口 |----|
口口口口 |----|
口口口口
141
口口口口 |①---|
口口①① |----|
口口口口 |----|
口口口口
142
口①口口 |①---|
口口口口 |----|
口口口口 |----|
口口口口
143
口口口口 |①---|
口①①口 |----|
口口口口 |----|
口口口口
144
口口口口 |①---|
口口口口 |----|
口口①口 |----|
口口口口
145
口口口口 |①---|
口口口口 |----|
口口口口 |----|
口①①口
146
口口口口 |①---|
口口口口 |----|
口口口口 |----|
①口口口
147
口口口口 |①---|
口口口口 |----|
口①①口 |----|
口口口口
148
口口口口 |①---|
口口口① |----|
口口口口 |----|
口口口口
149
口①①口 |①---|
口口口口 |----|
口口口口 |----|
口口口口
150
口口口口 |①---|
口口口口 |----|
口①口口 |----|
口①口口
151
口口①① |①---|
口口口口 |----|
口口口口 |----|
口口口口
152
口口口口 |①---|
口口口口 |----|
口口①口 |----|
口口①口
153
①①口口 |①---|
口口口口 |----|
口口口口 |----|
口口口口
154
口口口① |①---|
口口口口 |----|
口口口口 |----|
口口口口
155
口口口口 |----|
口口口口 |----|
口口口口 |----|
口口口口
156
①口口口 |①---|
口口口口 |----|
口口口口 |----|
口口口口
157
口口口口 |①---|
口口口口 |----|
口①①口 |----|
口口口口
158
口口口口 |①---|
口口口口 |----|
①口口口 |----|
口①口口
159
口口口口 |①---|
口口口口 |----|
口口口① |----|
口口①口
160
口口①口 |①---|
口口口① |----|
口口口口 |----|
口口口口
161
口①口口 |①---|
①口口口 |----|
口口口口 |----|
口口口口
162
②口口② |①---|
口口口口 |----|
口①①口 |②---|
口口口口
163
口口口口 |----|
口口口口 |①---|
①口口口 |----|
①口口口
164
口口口口 |①---|
口口②口 |----|
口②口① |②---|
口口口①
165
口口口口 |----|
口①口口 |①---|
口口①口 |----|
口口口口
166
①①①① |①---|
口口口口 |----|
口口口口 |----|
口口口口
167
口口口口 |----|
口口口口 |----|
口口口口 |----|
口口口口
168
口口口口 |----|
口口口口 |----|
口口口口 |----|
口口口口
169
口口口口 |----|
口口口口 |----|
口口口口 |----|
口口口口
170
口口口口 |①---|
①口口口 |----|
口口口① |----|
口口口口
171
口口口口 |①---|
口口口① |----|
①口口口 |----|
口口口口
172
①口口口 |①---|
口口口口 |----|
口口口口 |----|
口口口①
173
口口口① |①---|
口口口口 |----|
口口口口 |----|
①口口口
174
口口口口 |①---|
口①①口 |----|
口①①口 |----|
口口口口
175
口口口口 |----|
口口口口 |----|
口口口口 |----|
口口口口
176
口①①口 |①---|
口口口口 |----|
口口口口 |----|
口口口口
177
口口口口 |①---|
口口口口 |----|
口口口口 |----|
口①①口
178
口口口口 |①---|
①口口① |----|
①口口① |----|
口口口口

accuracy: 100%
最終更新:2022年04月10日 14:37