アットウィキロゴ
COSMIC SYMPHONY
OSTER project

ADVANCED

LEVEL: 7
BPM: 280
Notes: 471

1
口口口口 |----|
口口口口 |----|
口口口口 |----|
口口口口
2
口口口口 |①---|
口口口口 |----|
口口口口 |----|
①口口口
3
口口口口 |①---|
口口口口 |----|
口口口口 |----|
口口口①
4
口口口口 |①---|
口②②口 |----|
口口口口 |②---|
①口口口
5
口口口口 |----|
口口口口 |----|
口口口口 |----|
口口口口
6
口口口口 |①---|
①②口口 |②---|
口口口口 |----|
口口口口
7
口口口口 |①---|
口口②① |②---|
口口口口 |----|
口口口口
8
口①②口 |①---|
口口口口 |②---|
口口口口 |----|
口口口口
9
口口口口 |①---|
口口口口 |②---|
口①②口 |----|
口口口口
10
口口口口 |①---|
①②③口 |②---|
口口口口 |③---|
口口口口
11
口口③② |①---|
口口口① |②---|
口口口口 |③---|
口口口口
12
②①口口 |①---|
③口口口 |②---|
口口口口 |③---|
口口口口
13
口口口口 |①---|
口①口口 |----|
口口口口 |----|
口口口口
14
口口口口 |①---|
口口口口 |----|
口口口口 |----|
口①①口
15
口口口口 |①---|
口口口口 |②---|
①②③口 |③---|
口口口口
16
口口口口 |①---|
口③②① |②---|
口口口口 |③---|
口口口口
17
①②③口 |①---|
口口口口 |②---|
口口口口 |③---|
口口口口
18
口口口口 |①---|
口口口口 |----|
口①①口 |----|
口口口口
19
口口口口 |①---|
①口口① |----|
口口口口 |----|
口口口口
20
口口口口 |①---|
口①①口 |----|
口口口口 |----|
口口口口
21
①口口① |①---|
口口口口 |----|
口口口口 |----|
口口口口
22
口①口口 |①---|
口口口口 |----|
口口口口 |----|
口口口口
23
口口口口 |①---|
口口①口 |----|
口口口口 |----|
口口口口
24
口口口口 |①---|
口口口口 |----|
口①口口 |----|
口口口口
25
口口口口 |①---|
口口口口 |----|
口口口口 |----|
口口①口
26
口口口口 |①---|
口③口口 |②---|
口口②口 |③---|
口口口①
27
①口口口 |①---|
②口口口 |②---|
③口口口 |③---|
口口口口
28
口口口口 |①---|
口口③口 |②---|
口②口口 |③---|
①口口口
29
口口口① |①---|
口口口② |②---|
口口③③ |③---|
口口口口
30
口口口口 |----|
口口口口 |----|
口口口口 |----|
口口口口
31
口口口口 |----|
口口口口 |----|
口口口口 |----|
口口口口
32
口口口口 |----|
口口口口 |----|
口口口口 |----|
口口口口
33
口口口口 |----|
口口口口 |----|
口口口口 |----|
口口口口
34
口口口口 |①---|
口口口口 |----|
口①口口 |----|
口口①口
35
口口口口 |①---|
口③口口 |②---|
口口②① |③---|
口口口口
36
口口口口 |①---|
①口口口 |----|
口口口口 |----|
口口口口
37
口口①① |①---|
口口口口 |----|
口口口口 |----|
口口口口
38
口口口口 |①---|
口口口口 |----|
①①口口 |----|
口口口口
39
口口口口 |①---|
①②口口 |②---|
口口③口 |③---|
口口口口
40
口口口口 |①---|
口口口口 |----|
口口口① |----|
口口口口
41
①①口口 |①---|
口口口口 |----|
口口口口 |----|
口口口口
42
口口口口 |①---|
口口口口 |----|
口口口口 |----|
口①①口
43
口口口口 |①---|
口③口口 |②---|
口①②口 |③---|
口口口口
44
口口①① |①---|
口口口口 |----|
口口口口 |----|
口口口口
45
①①口口 |①---|
口口口口 |----|
口口口口 |----|
口口口口
46
口口口口 |①---|
口口口口 |----|
口①①口 |----|
口口口口
47
口口口口 |①---|
②口口① |②---|
口口口③ |③---|
口口口口
48
口口口口 |①---|
口口口口 |----|
①口口口 |----|
口口口口
49
口口口口 |①---|
口口口口 |----|
口口①口 |----|
口①口口
50
口①口口 |①---|
①口口口 |----|
口口口口 |----|
口口口口
51
口口③口 |①---|
口②口口 |②---|
口口①口 |③---|
口口口口
52
口口口① |①---|
口口口口 |----|
口口口口 |----|
口口口口
53
①口口口 |①---|
①口口口 |----|
口口口口 |----|
口口口口
54
口口口口 |①---|
口口口① |----|
口口口① |----|
口口口口
55
口③口口 |①---|
②①口口 |②---|
口口口口 |③---|
口口口口
56
口口①口 |①---|
口口口口 |----|
口口口口 |----|
口口口口
57
口口口口 |①---|
口口口口 |----|
口①①口 |----|
口口口口
58
①口口口 |①---|
口②③口 |②---|
口口口口 |③---|
口口口口
59
口口口口 |①---|
口口口口 |----|
口口①口 |----|
口口口口
60
口口口口 |①---|
口口口口 |----|
①口口口 |----|
口①口口
61
口口口口 |①---|
口②③口 |②---|
口口①口 |③---|
口口口口
62
①①口口 |①---|
口口口口 |----|
口口口口 |----|
口口口口
63
口口①① |①---|
口口口口 |----|
口口口口 |----|
口口口口
64
①口口口 |①---|
口②口口 |②---|
口口③口 |③---|
口口口口
65
口口口口 |①---|
口口口口 |②---|
口③口口 |③---|
口口②①
66
口②②口 |①---|
口口口① |②---|
口口口口 |----|
口口口口
67
口口口口 |①---|
①口口口 |②---|
口②②口 |----|
口口口口
68
口口口① |①---|
口③②口 |②---|
口口口口 |③---|
口口口口
69
口口口口 |①---|
①口口口 |②---|
口②③口 |③---|
口口口口
70
口口口口 |①---|
口口口口 |----|
①口口口 |----|
口①口口
71
口口口口 |①---|
口口口口 |----|
口口口① |----|
口口①口
72
口口口口 |①---|
①口口② |----|
口①②口 |----|
口口口口 |②---|

口口③口
口③口口 |----|
口口口口 |③---|
口口口口 |----|
73
口口口口 |----|
口③①口 |①---|
口口②口 |②---|
口口口口 |③---|

口口口口
⑤口口口 |④---|
⑥④口口 |⑤---|
口口口口 |⑥---|
74
②口口口 |①---|
②口①① |----|
口口口口 |----|
口口口口 |②---|

口口口口
口口口口 |----|
口口口口 |----|
口口口口 |----|
75
口口口口 |----|
口①③口 |①---|
口②口口 |②---|
口口口口 |③---|

口口口口
口口口⑤ |④---|
口口④⑥ |⑤---|
口口口口 |⑥---|
76
口口口口 |①---|
①①口口 |----|
口口口口 |----|
口口②② |②---|

口口口口
口口口口 |----|
口口口口 |③---|
③③口口 |----|
77
口口②口 |①---|
口①口口 |②---|
口口口口 |----|
口口口口
78
口口口口 |①---|
①口口口 |----|
口①口口 |----|
口口口口
79
口②口口 |①---|
口口①口 |②---|
口口口口 |----|
口口口口
80
口口口口 |①---|
口口口① |----|
口口①口 |----|
口口口口
81
口口口口 |①---|
①口口口 |----|
①口口口 |----|
口口口口
82
口口口口 |①---|
口口口口 |②---|
口口口口 |③---|
③②①口
83
口口口口 |①---|
口口口口 |②---|
③②①口 |③---|
口口口口
84
口口口口 |①---|
③②①口 |②---|
口口口口 |③---|
口口口口
85
③②①口 |①---|
口口口口 |②---|
口口口口 |③---|
口口口口
86
口口口① |①---|
口口口① |----|
口口口口 |----|
口口口口
87
口口口口 |①---|
口口口口 |②---|
口③口口 |③---|
①口②口
88
口口口口 |①---|
②口③口 |②---|
口口口① |③---|
口口口口
89
③口口口 |①---|
口②口口 |②---|
口口①口 |③---|
口口口口
90
口口口① |①---|
口口口② |②---|
口口口③ |③---|
口口口口
91
口口口口 |①---|
口口③口 |②---|
口口②口 |③---|
口口①口
92
①①口口 |①---|
②②口口 |②---|
③③口口 |③---|
口口口口
93
口口口口 |①---|
口口口口 |②---|
口口③③ |③---|
①①②②
94
口口口口 |①---|
①①①① |----|
口口口口 |----|
口口口口
95
①①①① |①---|
口口口口 |----|
口口口口 |----|
口口口口
96
口口口口 |①---|
①①①① |----|
口口口口 |----|
口口口口
97
口口口口 |①---|
口口口口 |----|
①①①① |----|
口口口口
98
①口③口 |①---|
口②口口 |②---|
口口口口 |③---|
口口口口
99
口口口口 |①---|
①口③口 |②---|
口②口口 |③---|
口口口口
100
①①口口 |①---|
口口口口 |----|
口口口口 |----|
口口口口
101
口口口口 |①---|
口口口① |----|
口口口① |----|
口口口口
102
口口口口 |①---|
口口口口 |----|
口口口口 |----|
①①口口
103
口口口口 |①---|
①①①① |----|
口口口口 |----|
口口口口
104
口口口口 |①---|
口口口口 |----|
①①①① |----|
口口口口
105
口口口口 |①---|
口口口口 |----|
口口口口 |----|
①①①①
106
口口口口 |①---|
口①①口 |----|
口①①口 |----|
口口口口
107
口口口口 |①---|
①口口① |----|
①口口① |----|
口口口口
108
①①①① |①---|
口口口口 |----|
口口口口 |----|
口口口口
109
口口口口 |①---|
口口口口 |----|
口口口口 |----|
①①①①
110
口口口口 |①---|
口口口口 |----|
①①①口 |----|
口口口口
111
口口口口 |①---|
口①①① |----|
口口口口 |----|
口口口口
112
①①①口 |①---|
口口口口 |----|
口口口口 |----|
口口口口
113
口口口口 |①---|
口口口口 |----|
口①①① |----|
口口口口
114
③口口口 |①---|
口②口口 |②---|
①口口口 |③---|
口口口口
115
口③口口 |①---|
口口②口 |②---|
口①口口 |③---|
口口口口
116
口口③口 |①---|
口口口② |②---|
口口①口 |③---|
口口口口
117
①口口口 |①---|
①口口口 |----|
口口口口 |----|
口口口口
118
口口口口 |①---|
口口口口 |----|
口口口① |----|
口口口①
119
口口口口 |①---|
口口口口 |②---|
口③口口 |③---|
①口②口
120
口口口口 |①---|
②口③口 |②---|
口口口① |③---|
口口口口
121
口①①口 |①---|
口口口口 |--②-|
口②②口 |----|
口口口口
122
①口口① |①---|
口口口口 |----|
口口口口 |----|
口口口口
123
口口口口 |----|
口口口口 |----|
口口口口 |----|
口口口口
124
口口口口 |①---|
口③口口 |②---|
口①②口 |③---|
口口口口
125
②口口② |①---|
②口①② |--②-|
口口口口 |----|
口口口口
126
口口口口 |①---|
口口口口 |----|
口口口口 |----|
口①①口
127
口口口口 |----|
口口口口 |----|
口口口口 |----|
口口口口
128
口口口口 |①---|
口口口口 |----|
口①①口 |----|
口口口口
129
口口口口 |----|
口口口口 |----|
口口口口 |----|
口口口口
130
口口口口 |①---|
口①①口 |----|
口口口口 |----|
口口口口
131
口口口口 |----|
口口口口 |----|
口口口口 |----|
口口口口
132
口①①口 |①---|
口口口口 |----|
口口口口 |----|
口口口口
133
①口口① |①---|
口口口口 |----|
口口口口 |----|
口口口口
134
口口口口 |①---|
①口口口 |----|
口①口口 |----|
口口口口
135
口口口口 |①---|
口③口口 |②---|
口口②口 |③---|
口①口口
136
口口①口 |①---|
口口③② |②---|
口口口口 |③---|
口口口口
137
②口口口 |①---|
口口口口 |--②-|
口①口口 |----|
口口口口
138
口口口① |①---|
口口②口 |②---|
口③口口 |③---|
口口口口
139
口口①口 |①---|
口②口口 |②---|
③口口口 |③---|
口口口口
140
口口口口 |①---|
口口口口 |----|
口口口口 |----|
口①①口
141
①口口① |①---|
口口口口 |----|
口口口口 |----|
口口口口
142
口口口口 |①---|
口口口口 |②---|
口口口口 |③---|
口③②①
143
口口口口 |①---|
口口口口 |②---|
①②③口 |③---|
口口口口
144
口口口口 |①---|
口③②① |②---|
口口口口 |③---|
口口口口
145
①②③口 |①---|
口口口口 |②---|
口口口口 |③---|
口口口口
146
口口口① |①---|
口口口② |②---|
口口口③ |③---|
口口口口
147
口口口口 |①---|
口口③口 |②---|
口口②口 |③---|
口口①口
148
口①口口 |①---|
口②口口 |②---|
口③口口 |③---|
口口口口
149
口口口口 |①---|
③口口口 |②---|
②口口口 |③---|
①口口口
150
口①口口 |①---|
口口①口 |----|
口口口口 |----|
口口口口
151
口口口口 |①---|
口口口口 |----|
口①口口 |----|
口口①口
152
口口口口 |①---|
口口①口 |----|
口口口① |----|
口口口口
153
口①口口 |①---|
①口口口 |----|
口口口口 |----|
口口口口
154
口口口口 |①---|
口口口口 |----|
口①①口 |----|
口口口口
155
口口口口 |①---|
①口口口 |----|
口口口口 |----|
口口口口
156
口口口口 |①---|
口口口① |----|
口口口口 |----|
口口口口
157
口口口口 |①---|
口口口口 |----|
口口口口 |----|
①口口①
158
口口③③ |①---|
②②口口 |②---|
口口①① |③---|
口口口口
159
①①口口 |①---|
口口②② |②---|
③③口口 |③---|
口口口口
160
口口口口 |①---|
口口口口 |②---|
口口③③ |③---|
②②①①
161
口口口② |①---|
①①口② |--②-|
口口口口 |----|
口口口口
162
①口①口 |①---|
口口口口 |----|
②口②口 |②---|
口口口口
163
口①口① |----|
口口口口 |①---|
口口口口 |----|
口口口口
164
口口口口 |①---|
口口口口 |----|
口①口① |②---|
②口②口
165
口口口口 |----|
①口①口 |①---|
口口口口 |----|
口口口口
166
口口口① |①---|
口口口口 |----|
口口口① |②---|
口②口口
167
口口口口 |----|
口口口口 |①---|
口口①口 |----|
口口口口
168
口口②口 |①---|
口①口口 |----|
口口口口 |②---|
口口口口
169
②口口① |----|
②口口① |①---|
口口口口 |②---|
口口口口
170
口口口口 |①---|
口①①口 |②---|
口②②口 |③---|
口③③口
171
口口口口 |①---|
③口口③ |②---|
②口口② |③---|
①口口①
172
①①②② |①---|
口③③口 |②---|
口口口口 |③---|
口口口口
173
口口口口 |①---|
口口口口 |②---|
①①②② |③---|
口③③口
174
口口口口 |①---|
①口口① |----|
口口口口 |----|
口口口口
175
口口口口 |----|
口口口口 |----|
口口口口 |----|
口口口口
176
口口口口 |①---|
①口口口 |②---|
②口口口 |③---|
口③口口
177
口口口口 |①---|
口口口① |②---|
口口口② |③---|
口口③口
178
口①①口 |①---|
口口口口 |----|
口①①口 |----|
口口口口

accuracy: 100%
最終更新:2022年05月25日 02:07