アットウィキロゴ
COSMIC SYMPHONY
OSTER project

EXTREME

LEVEL: 10.3
BPM: 280
Notes: 851

1
口口口口 |----|
口口口口 |----|
口口口口 |----|
口口口口
2
①③口② |①---|
口口口口 |②---|
口口口口 |③---|
口口口口
3
口口口口 |①---|
①③口② |②---|
口⑤④口 |③-④⑤|
口口口口
4
口③③口 |①---|
口口②口 |②---|
①口口口 |③---|
口口口口
5
口口口口 |----|
口口口口 |----|
口口口口 |----|
口口口口
6
口口口① |①---|
②口口口 |②---|
口①口口 |----|
口口②口
7
口口①口 |①---|
口②口口 |②---|
①口口口 |----|
口口口②
8
②口口① |①---|
口口口口 |②---|
口①②口 |----|
口口口口
9
口口口口 |①---|
口口口口 |②---|
口口口口 |----|
①②①②
10
口口口① |①---|
口③口口 |②---|
口①口② |③---|
口口口口
11
①口①口 |①---|
③口口口 |②---|
口口②口 |③---|
口口口口
12
口①口① |①---|
口口口③ |②---|
口②口口 |③---|
口口口口
13
⑨口①口 |①-②-③-|
⑧口②口 |④-⑤-⑥-|
⑦口③口 |⑦-⑧-⑨-|
⑥⑤④口
14
口①口① |①---|
口口口口 |--②-|
口口口③ |③---|
口口口②
15
口口①口 |①---|
口②口③ |②---|
口口①口 |③---|
口口口口
16
①口口口 |①---|
口口口口 |②---|
①口口口 |③---|
③口②口
17
口口③口 |①---|
口①口口 |②---|
口口口② |③---|
口①口口
18
①口口口 |①---|
口口②② |②---|
②②口口 |----|
口口口①
19
口口②① |①---|
口②口口 |②---|
口口②口 |----|
①②口口
20
口①口口 |①---|
②口②口 |②---|
口②口② |----|
口口①口
21
口口口口 |①---|
口口口③ |②---|
②口口口 |③---|
口口口①
22
①口①口 |①---|
口①口口 |----|
口口口口 |----|
口口口口
23
口①口① |①---|
口口①口 |----|
口口口口 |②-③-|
③口口②
24
口口口口 |①-②-|
口⑥⑤口 |③-④-|
口④③口 |⑤-⑥-|
口②①口
25
口口①口 |①---|
④口口⑤ |②-③-|
②口口③ |④-⑤-|
口口口口
26
①口③口 |①---|
口口口口 |②---|
口口口口 |③---|
口②口口
27
口口口② |①---|
口口口口 |②---|
口口口口 |③---|
口口③①
28
③①口口 |①---|
口④口口 |②---|
口口口口 |③-④-|
②口口口
29
口口③口 |①---|
②口③口 |②---|
口②①③ |③---|
口②口口
30
口口口口 |----|
口口口口 |----|
口口口口 |----|
口口口口
31
口口口口 |----|
口口口口 |----|
口口口口 |----|
口口口口
32
口口口口 |----|
口口口口 |----|
口口口口 |----|
口口口口
33
口口口口 |----|
口口口口 |----|
口口口口 |----|
口口口口
34
口口口口 |①---|
①口口口 |----|
口口口口 |----|
口口①口
35
口口口口 |①---|
口②口③ |②---|
口口口① |③---|
口口口口
36
口①口口 |①---|
口口口口 |----|
口①口口 |----|
口口口口
37
①口口口 |①---|
口③口② |②-③-|
①⑤口④ |④-⑤-|
口口口口
38
口口口口 |①---|
口口①口 |----|
口口口口 |----|
口口①口
39
口口口口 |①---|
③口口口 |②---|
口④②口 |③-④-|
①口口口
40
口②口③ |①---|
口口①口 |②---|
口口口口 |③---|
口口①口
41
口口口口 |①---|
口口口口 |----|
口口口① |②---|
②口口口
42
口口口口 |①---|
口口口口 |----|
口口口口 |----|
口①口①
43
口口③口 |①---|
①口口口 |②---|
口口②口 |③---|
口口口口
44
口①口① |①---|
口口口口 |②---|
口口口② |③---|
口③口口
45
口口②口 |①---|
①③④口 |②-③-|
口⑤口口 |④-⑤-|
①口口口
46
口口口口 |①---|
口口口口 |----|
口口①口 |----|
口口口口
47
③口口② |①---|
①④口口 |②---|
口口口口 |③-④-|
口口口口
48
口口口口 |①---|
口口口口 |----|
口口①口 |----|
口口口口
49
口口口口 |①---|
口口口口 |----|
①口口口 |----|
①口口口
50
口⑥③口 |①-②-|
②口口⑤ |③-④-|
口④①口 |⑤-⑥-|
口口口口
51
⑥口口③ |①-②-|
口②⑤口 |③-④-|
④口口① |⑤-⑥-|
口口口口
52
口④口口 |①-②-|
⑥口口③ |③-④-|
口②⑤口 |⑤-⑥-|
口口口①
53
④口口口 |①-②-|
口⑥③口 |③-④-|
②口口⑤ |⑤-⑥-|
口口①口
54
口④口口 |①-②-|
⑥口口③ |③-④-|
口②⑤口 |⑤-⑥-|
口口口①
55
④口口口 |①-②-|
口⑥③口 |③-④-|
②口口⑤ |⑤-⑥-|
口口①口
56
口②①口 |①-②-|
④口口③ |③-④-|
口⑥⑤口 |⑤-⑥-|
口口口口
57
口口口口 |①-②-|
口⑥⑤口 |③-④-|
④口口③ |⑤-⑥-|
口②①口
58
口口口① |①---|
口口口口 |----|
口口口口 |----|
口口口口
59
口口②口 |①---|
①口口口 |--②-|
口②①② |----|
①口口口
60
①口口① |①---|
口①口② |②---|
口口口口 |③---|
口③口口
61
口口口口 |①-②-|
⑤口⑥口 |③-④-|
口③口④ |⑤-⑥-|
①口②口
62
口①口② |①---|
口①口② |②---|
口口口口 |----|
口口口口
63
口口口口 |①---|
口口口口 |②---|
①口②口 |----|
①口②口
64
②口④① |①---|
口③口⑤ |②-③-|
口口口① |④-⑤-|
口口口口
65
口口口口 |①---|
②口口口 |②-③-|
口③①口 |④---|
④口口口
66
①①口① |①---|
口口口口 |②---|
口口口口 |----|
口②口②
67
口口口口 |①---|
①口①① |②---|
口口口口 |----|
②口②口
68
口①口口 |①---|
口①口口 |②---|
②口口口 |③---|
口①口③
69
口口①② |①---|
③口口口 |②---|
口口①口 |③---|
口口①口
70
②口口口 |①---|
口口②口 |--②-|
口口口① |----|
口①口口
71
口口口① |①---|
口①口口 |②-③-|
口⑤④口 |④-⑤-|
③口口②
72
口口口口 |①---|
③口口① |②---|
③口口① |③---|
口②②④ |④---⑤-|

⑨口口⑥
口⑤口口 |--⑥---|
口口⑧口 |⑦---⑧-|
⑦口口口 |--⑨---|
73
口口③口 |----|
口②①口 |①-②-|
口口口口 |③---|
④口口口 |④-⑤-|

口口口口
口口口口 |⑥---|
⑥口口⑨ |⑦-⑧-|
口⑤⑧⑦ |⑨---|
74
②①口② |①---|
①口②口 |----|
口②口口 |----|
口口口口 |②---|

口口口口
口口口口 |----|
口口口口 |③---④-|
④口口③ |----|
75
③口口口 |----|
①②口④ |①-②-|
口口口口 |③---|
口口口口 |④-⑤-|

口口口口
口口⑤口 |⑥---|
口⑦⑧⑥ |⑦-⑧-|
口⑨⑩口 |⑨-⑩-|
76
口①②口 |①---|
①口口② |②---|
口口口口 |--③-|
③口口④ |④-⑤-|

口口口口
⑪⑨⑩口 |⑥-⑦-|
⑤⑦⑧⑥ |⑧-⑨-|
口口口口 |⑩-⑪-|
77
②②口口 |①---|
口口口① |②---|
口口口口 |----|
口口口口
78
口口口① |①-②-|
⑥②口口 |③-④-|
口口⑤③ |⑤-⑥-|
口④口口
79
②②①口 |①---|
口口口口 |②---|
口口口口 |----|
口口口口
80
口口口① |①---|
口②③口 |②---|
口口口① |③---|
口②③口
81
①口口口 |①---|
口口口口 |----|
①口口口 |----|
口口口口
82
口口口① |①---|
口口口② |②---|
口口口③ |③---|
口口口①
83
口口①口 |①---|
口口②口 |②---|
口口③口 |③---|
口口①口
84
口①口口 |①---|
口②口口 |②---|
口③口口 |③---|
口①口口
85
①口口口 |①---|
②口④口 |②---|
③口口口 |③-④-|
①口口口
86
口①②口 |①---|
口③口口 |②-③-|
口口④口 |④---|
口口口口
87
口口口口 |①-②-|
③口口④ |③---|
口②口口 |④---|
①口口口
88
口③③口 |①---|
口口口口 |②---|
口口口口 |③---|
口②②①
89
口口口④ |①-②-|
口③⑥口 |③-④-|
口⑤②口 |⑤-⑥-|
①口口口
90
①口口口 |①---|
②口口③ |②---|
①口口口 |③---|
口③②口
91
口①②口 |①---|
口③③口 |②---|
口②①口 |③---|
口口口口
92
①口口口 |①-②-③-|
②口口⑨ |④-⑤-⑥-|
③口口⑧ |⑦-⑧-⑨-|
④⑤⑥⑦
93
⑧③②① |①-②-③-|
⑨④⑦口 |④-⑤-⑥-|
口⑤⑥口 |⑦-⑧-⑨-|
口口口口
94
口⑤口④ |①---|
口口口口 |②-③-|
①口口口 |④-⑤-|
口③口②
95
④口⑤口 |①---|
口①口① |②-③-|
口口口① |④-⑤-|
②口③口
96
口口口口 |①---|
①③①口 |--②-|
①口②口 |③---|
口口口口
97
②口口① |①---|
口口口口 |②---|
口口口口 |③---|
③口口口
98
口④①⑤ |①---|
①口口① |②-③-|
口口口口 |④-⑤-|
口②口③
99
⑤口④口 |①---|
口①口口 |②-③-|
口①口① |④-⑤-|
③口②口
100
口③口口 |①---|
②口①口 |--②-|
①口①口 |③---|
口口口口
101
口口口① |①---|
口②口② |②---|
③口口① |--③-|
口口口口
102
③口②口 |①---|
③口②口 |②---|
口口口口 |③---|
口①①口
103
口③口② |①---|
口③口② |②---|
口①口口 |③---|
口口口口
104
口口口口 |①---|
③口③口 |②---|
②口①口 |③---|
②口①口
105
②口②口 |①---|
口②口口 |--②-|
口口口口 |----|
口①口①
106
口口口口 |①-②-|
口口口口 |③-④-|
⑥②⑤① |⑤-⑥-|
④口③口
107
⑥②⑤① |①-②-|
④口③口 |③-④-|
口口口口 |⑤-⑥-|
口口口口
108
口口口口 |①---|
口②口① |②-③-|
口口⑤① |④-⑤-|
口④口③
109
口口口口 |①---|
口口②口 |--②-|
①②口口 |----|
①口口口
110
①口口① |①---|
①口口① |②---|
③口口口 |③---|
口口②口
111
口口①口 |①---|
③①口口 |②---|
口口①② |③---|
口口口口
112
口①口② |①---|
口⑤①③ |②-③-|
口①④口 |④-⑤-|
口口口口
113
③③口口 |①---|
口口口口 |②---|
①口口口 |③---|
口口②②
114
口口口口 |①---|
②口①⑤ |②-③-|
口③④① |④-⑤-|
口口口口
115
口口①口 |①---|
口口口口 |②-③-|
②口口⑤ |④-⑤-|
口③④口
116
口口口口 |①---|
②口①③ |②---|
口口口口 |③---|
口口口口
117
①口口③ |①---|
口①③口 |②---|
口口②口 |③---|
口口口②
118
口口口口 |①---|
口口口口 |----|
口①口② |②-③-|
①口③口
119
口③口口 |①---|
③口口② |②---|
口口②口 |③---|
口①口口
120
口口口口 |①---|
口③②口 |②---|
②①口③ |③---|
口口口①
121
①口①口 |①---|
口口口口 |--②-|
口口口口 |----|
②口②口
122
口口⑤① |①---|
④口①口 |②-③-|
口口口③ |④-⑤-|
口②口口
123
口③口口 |①-②-|
口口⑥④ |③-④-|
①⑤口口 |⑤-⑥-|
口口②口
124
①口口② |①---|
口③口口 |②---|
口口③口 |③---|
②口口①
125
口②①口 |①-②-|
③口③口 |--③-|
口③口③ |----|
口①②口
126
①口口① |①---|
口口口⑤ |②-③-|
④口③口 |④-⑤-|
②口口口
127
口口②口 |①-②-|
③①⑥口 |③-④-|
口口口④ |⑤-⑥-|
口⑤口口
128
①口口口 |①---|
口口口口 |----|
口口口口 |----|
口口口口
129
口口口② |①---|
口口口① |--②-|
口口②口 |----|
口口①口
130
①口口口 |①---|
②口口口 |--②-|
口①口口 |----|
口②口口
131
口口③口 |①---|
口②口③ |②---|
②口口① |③---|
口口①口
132
①口口③ |①---|
口口②口 |--②-|
口①口口 |③---|
口口口口
133
口①口口 |①---|
口口口口 |②-③-|
④口口② |--④-|
口口③口
134
口③口口 |①---|
口口口② |②---|
口口口口 |③---|
口①口①
135
口口③口 |①---|
②口口口 |②---|
口口口口 |③---|
①口口口
136
口口口口 |①---|
口②①口 |②---|
口①②③ |③---|
口口③口
137
口口口② |①---|
口口口口 |--②-|
①口口口 |----|
口①口口
138
口口⑥口 |①-②-|
①⑤④口 |③-④-|
口③②口 |⑤-⑥-|
①口口口
139
①口口口 |①-②-|
口口口口 |③-④-|
①口⑥口 |⑤-⑥-|
⑤③②④
140
口⑤④⑥ |①-②-|
口③②口 |③-④-|
口①口口 |⑤-⑥-|
口口口口
141
①口口口 |①---|
口口口口 |--②-|
口口口口 |----|
②②口口
142
口口口⑤ |①-②-|
③口⑥口 |③-④-|
口④口① |⑤-⑥-|
口口②口
143
①口口口 |①-②-|
口②口③ |③-④-|
⑤口④口 |⑤-⑥-|
口⑥口口
144
口口口⑤ |①-②-|
③口⑥口 |③-④-|
口④口① |⑤-⑥-|
口口②口
145
①①口口 |①---|
口②口口 |②---|
②口口口 |③---|
③③口口
146
④口口③ |①-②-|
口口口③ |--③-|
口口②口 |--④-|
口口口①
147
口⑤口口 |①---|
口①④口 |②-③-|
口③口口 |④-⑤-|
口口②口
148
口口①口 |①---|
口口口③ |②---|
②口口① |③---|
口口口口
149
②口口① |①---|
③①②口 |②---|
口口口口 |--③-|
口口口口
150
口①②口 |①---|
口口口口 |--②-|
口口口口 |----|
口口口②
151
②口口① |①---|
口口口口 |--②-|
口口口口 |----|
口②①口
152
口①口口 |①---|
②口③口 |②---|
口②口③ |③---|
①口口口
153
②口口① |①---|
口口口口 |--②-|
口口口口 |----|
口②①口
154
口口口口 |①---|
口口②口 |----|
口③口口 |②-③-|
①口口①
155
口口③口 |①---|
②口口口 |②---|
口口①口 |③---|
口口口口
156
口①口口 |①---|
口③口② |②---|
口口口口 |③---|
口口口口
157
②口口① |①---|
口口口口 |--②-|
口口口口 |----|
口口口口
158
口口①口 |①---|
口口口① |②---|
②③口口 |③---|
③②口口
159
口①口口 |①---|
①口口口 |②---|
口口③② |③---|
口口②③
160
③口①② |①---|
口③②① |②---|
口口口口 |③---|
口口口口
161
口①口口 |①---|
①口口口 |--②-|
口口口② |----|
口口②口
162
口口①② |①---|
口口口① |----|
①口口口 |②---|
口①口口
163
③口口口 |①-②-|
口⑤④口 |③---|
口②①口 |④-⑤-|
③口口口
164
口口①④ |①---|
口口口口 |②-③-|
口口⑤口 |④----⑤|
口②③④
165
②口口口 |--①-|
口③④口 |②---|
口①口口 |③-④-|
②口口口
166
口①①口 |①---|
①口口① |②-③-|
口口口口 |④---|
口③②④
167
口口口④ |①-②-|
口口⑤口 |③---|
口②①③ |④-⑤-|
口口口口
168
口①口口 |①-②-|
②口口口 |③-④-|
③口⑥口 |⑤-⑥-|
口④⑤口
169
口口②③ |①---|
口口③② |②---|
口①口口 |③---|
口口口口
170
①①口口 |①---|
②②口口 |②---|
③③口口 |③---|
口口口口
171
口口口口 |①---|
口口③③ |②---|
口口②② |③---|
口口①①
172
①③口口 |①-②-|
②④口口 |③-④-|
⑤口口口 |⑤-⑥-|
⑥口口口
173
口口口口 |①-②-|
口口口口 |③-④-|
口①③⑤ |⑤---|
口②④口
174
口口①① |①---|
口口①① |----|
口口口口 |----|
口口口口
175
①口口口 |----|
口口口口 |----|
口口口口 |-----①|
口口口口
176
口口口口 |----|
口口口口 |①-②-|
①口口口 |③---|
②③口口
177
③口口② |①---|
口口口口 |②---|
口口口口 |③---|
口口口①
178
口①①口 |①---|
口①①口 |----|
口①①口 |----|
口口口口

accuracy: 100%
最終更新:2022年05月25日 10:32