アットウィキロゴ
Pacify
BEMANI Sound Team "SYUNN"

EXTREME

LEVEL: 10.1
BPM: 175
Notes(hold): 791(44)

1
口口口口 |----|
口口口口 |----|
口口口口 |----|
口口口口 |----|
2
口口口⑥ |①---|
①⑤口③ |②---|
口口④口 |③-④-|
口②口口 |⑤-⑥-|
3
口口③口 |--①-|
口口口口 |--②-|
口①口口 |③---|
④口口② |④---|
4
①口口口 |----|
口②口⑤ |①-②-|
口口③口 |③-④-|
口⑥口④ |⑤-⑥-|
5
口口①④ |①---|
②口口口 |②-③-|
口口口口 |--④-|
③⑤口口 |--⑤-|
6
⑥口口口 |①---|
③口⑤① |②---|
口④口口 |③-④-|
口口②口 |⑤-⑥-|
7
口③口口 |--①-|
口口口口 |--②-|
口口①口 |③---|
②口口④ |④---|
8
口口口① |----|
⑤口②口 |①-②-|
口③口口 |③-④-|
④口⑥口 |⑤-⑥-|
9
口①④口 |①---|
口⑤口② |②-③-|
口口⑥口 |④-⑤-|
口⑦口③ |⑥-⑦-|
10
③①④① |①-②-|
口⑦口⑤ |--③-|
②口⑥口 |④-⑤-|
口口口口 |⑥-⑦-|
11
⑤⑤⑦口 |--①②|
口口④口 |③-④-|
⑥⑥口⑦ |⑤-⑥-|
口③②① |--⑦-|
12
④口⑤口 |--①-|
口①口口 |②-③-|
④口⑤口 |④---|
②口③口 |⑤---|
13
口④口⑦ |①-②③|
②口⑤③ |④⑤⑥-|
⑧⑥口口 |⑦-⑧-|
⑩口⑨① |⑨-⑩-|
14
①④①③ |①-②-|
⑤口⑦口 |--③-|
口⑥口② |④-⑤-|
口口口口 |⑥-⑦-|
15
口⑦⑤⑤ |--①②|
口④口口 |③-④-|
⑦口⑥⑥ |⑤-⑥-|
①②③口 |--⑦-|
16
口⑥口④ |--①-|
⑤口①⑦ |②-③-|
口⑥口④ |④-⑤-|
口③口② |⑥-⑦-|
17
④口①⑤ |--①②|
⑧②口⑨ |③④⑤-|
⑧口③⑨ |⑥-⑦-|
⑥⑥⑦⑦ |⑧-⑨-|
18
③⑧⑤② |①---|
⑥①①口 |②-③④|
⑧④⑦口 |⑤-⑥-|
口口口口 |⑦-⑧-|
19
口⑤口③ |--①-|
口②②① |--②-|
口④口⑥ |③-④-|
口口①口 |⑤-⑥-|
20
口⑥②④ |①---|
③③口② |②-③-|
⑦口⑤口 |④-⑤-|
①①口口 |⑥-⑦-|
21
⑧⑪⑦⑦ |①-②③|
口⑨①口 |④⑤⑥-|
⑪①⑩⑥ |⑦-⑧⑨|
⑤④③② |⑩-⑪-|
22
口口⑨④ |①---|
⑤⑦②口 |②-③④|
⑩⑩⑧⑥ |⑤⑥⑦⑧|
③口①① |⑨-⑩-|
23
口口口③ |--①-|
②④②① |--②-|
口口口⑤ |③-④-|
口⑥①口 |⑤-⑥-|
24
口口②口 |①---|
口⑤④② |②---|
①①口⑧ |③-④⑤|
③⑦⑥口 |⑥⑦⑧-|
25
②③④⑤ |①-②③|
⑧⑨⑨⑦ |④⑤⑥-|
⑥①①口 |⑦-⑧-|
⑧⑩⑩⑦ |⑨-⑩-|
26
②⑦④① |----|
⑤口口口 |①-②③|
口③⑥口 |④-⑤-|
口口⑦口 |⑥-⑦-|
27
②⑤口③ |--①-|
口口口① |--②-|
①④口⑥ |③-④-|
口口口② |⑤-⑥-|
28
口⑥②④ |①---|
③③口② |②-③-|
⑦口⑤口 |④-⑤-|
①①口口 |⑥-⑦-|
29
⑧⑪⑦⑦ |①-②③|
口⑨①口 |④⑤⑥-|
⑪①⑩⑥ |⑦-⑧⑨|
⑤④③② |⑩-⑪-|
30
口口⑨④ |①---|
⑤⑦②口 |②-③④|
⑩⑩⑧⑥ |⑤⑥⑦⑧|
③口①① |⑨-⑩-|
31
口口口③ |--①-|
②④②① |--②-|
口口口⑤ |③-④-|
口⑥①口 |⑤-⑥-|
32
口口②口 |①---|
口⑤④② |②---|
①①口⑧ |③-④⑤|
③⑦⑥口 |⑥⑦⑧-|
33
②③④⑤ |①-②③|
⑧⑨⑨⑦ |④⑤⑥-|
⑥①①口 |⑦-⑧-|
⑧⑩⑩⑦ |⑨-⑩-|
34
③①④口 |①-②-|
口⑦口⑤ |--③-|
口②⑥① |④-⑤-|
口口口口 |⑥-⑦-|
35
⑤⑤⑦口 |--①②|
口口④口 |③-④-|
⑥⑥口⑦ |⑤-⑥-|
口③②① |--⑦-|
36
④口⑤口 |--①-|
口①口口 |②-③-|
④口⑤口 |④---|
②口③口 |⑤---|
37
口④口⑦ |①-②③|
②口⑤③ |④⑤⑥-|
⑧⑥口口 |⑦-⑧-|
⑩口⑨① |⑨-⑩-|
38
①④①③ |①-②-|
⑤口⑦口 |--③-|
口⑥口② |④-⑤-|
口口口口 |⑥-⑦-|
39
口⑩⑦⑤ |--①②|
⑨④口口 |③-④-|
⑩口⑥⑧ |⑤⑥⑦⑧|
①②③口 |⑨-⑩-|
40
口⑥口④ |--①-|
⑤口①⑦ |②-③-|
口⑥口④ |④-⑤-|
口③口② |⑥-⑦-|
41
④口①⑤ |--①②|
⑧②⑧口 |③④⑤-|
口⑧③口 |⑥-⑦-|
⑥⑥⑦⑦ |⑧---|
42
口②―< |①---|
口口口① |②---|
口口口① |----|
口口口口 |③---|

口③口口
口口口口
口口③口
口口口口
43
口⑥④⑥ |①-②-|
口③口① |③-④-|
⑤口口④ |--⑤-|
口②⑤口 |--⑥-|
44
②口口口 |①---|
|口口口 |②---|
∧口①口 |--③-|
口口口口 |④-⑤-|

③口③口
口④口口
⑤口口口
口口口口
45
口口④④ |--①-|
②口口① |--②-|
⑤⑤口口 |③---|
口③口① |④-⑤-|
46
口口口口 |----|
口>―①|①---|
口口口口 |--②-|
口口口口 |--③-|

②②口口
口口口②
口口口口
口③③口
47
口④口口 |--①-|
③①⑤口 |--②-|
口⑥口② |③-④-|
①口口口 |⑤-⑥-|
48
―①口 |----|
口口口口 |①---|
口口口口 |--②-|
口口口口 |③-④-|

口口②口
②口④口
口口口口
口③口口
49
⑥②⑧① |--①②|
口④口③ |③④⑤-|
口口口⑤ |⑥-⑦-|
⑨口⑦口 |⑧-⑨-|
50
口口口① |----|
口口口| |①---|
口口口∧ |----|
口口口口 |②-③-|

口口口③
②口③口
口③口口
口口口口
51
③口②口 |--①-|
口①④口 |--②-|
⑤口①口 |--③-|
口②口口 |④-⑤-|
52
口口口口 |----|
口>―① |①---|
口>―① |----|
口口口口 |②---|

口②口口
口口口②
口口口②
口口口口
53
口口口口 |①-②-|
口②口口 |③-④-|
口口口口 |----|
①口口口 |⑤---|

口∨∨口
口||口
口④④口
口口③口

口口口口
⑤口口⑤
口⑤⑤口
口口口口
54
口口⑥口 |----|
口⑤口⑥ |①-②-|
④口口① |③-④-|
口③②口 |⑤-⑥-|
55
③③口① |--①-|
口口②④ |--②-|
口口①② |③---|
口口⑤口 |④-⑤-|
56
∨口①口 |----|
|口|口 |①---|
①口∧口 |----|
口口口口 |②---|

口口②口
口②口口
②口口口
口口口口
57
口②⑧口 |①-②-|
①口③⑦ |③-④-|
口④⑥口 |⑤-⑥-|
口口口⑤ |⑦-⑧-|
58
⑧<口② |①---|
①①⑧⑥ |②-③④|
口⑤④③ |⑤-⑥-|
③③口⑦ |⑦-⑧-|
59
①口口② |①-②-|
④<口口 |③-④-|
②<口口 |⑤-⑥-|
口口④口 |⑦-⑧-|

口口⑥口
⑤⑦口⑤
③口⑧口
口口口口
60
①①口② |①---|
口口④口 |②-③-|
③③口② |④-⑤-|
⑦⑤⑥口 |⑥-⑦-|
61
∨口②④ |①-②③|
①⑤⑧⑪ |④⑤⑥-|
口⑨③⑥ |⑦-⑧⑨|
⑦⑩口 |⑩-⑪-|

口口口口
④口口口
口口口口
口⑩口口
62
①①口② |①---|
口⑦⑧⑨ |②-③④|
口⑤⑥口 |⑤⑥⑦⑧|
③口口④ |⑨-⑩-|

⑩<⑩口
口口口口
口口口口
口口口口
63
①口口② |①-②-|
④<口口 |③-④-|
②<口口 |⑤-⑥-|
口口④口 |⑦-⑧-|

口口⑧口
⑤口口⑦
③口⑥口
口口口⑤
64
①①口② |①---|
口口⑧⑤ |②-③-|
口⑥④② |④-⑤⑥|
③③⑨⑦ |⑦⑧⑨-|
65
①②⑥口 |--①②|
⑤⑦口⑨ |③④⑤-|
⑧口④③ |⑥⑦⑧-|
口⑩口口 |⑨-⑩-|
66
①>① |①---|
口口口口 |②-③④|
口口口口 |⑤-⑥-|
口口口口 |⑦-⑧-|

口②口②
口口口⑥
口⑤④③
口口口口

⑧<口口
口口⑧口
口口口口
口口口⑦
67
①口口② |①-②-|
④<口口 |③-④-|
②<口口 |⑤-⑥-|
口口④口 |⑦-⑧-|

口口⑥口
⑤⑦口⑤
③口⑧口
口口口口
68
①①口② |①---|
口口④口 |②-③-|
③③口② |④-⑤-|
⑦⑤⑥口 |⑥-⑦-|
69
∨口②④ |①-②③|
①⑤⑧⑪ |④⑤⑥-|
口⑨③⑥ |⑦-⑧⑨|
⑦⑩口 |⑩-⑪-|

口口口口
④口口口
口口口口
口⑩口口
70
①①口② |①---|
口⑦⑧⑨ |②-③④|
口⑤⑥口 |⑤⑥⑦⑧|
③口口④ |⑨-⑩-|

⑩<⑩口
口口口口
口口口口
口口口口
71
①口口② |①-②-|
④<口口 |③-④-|
②<口口 |⑤-⑥-|
口口④口 |⑦-⑧-|

口口⑧口
⑤口口⑦
③口⑥口
口口口⑤
72
①①口② |①---|
口口⑧⑤ |②-③-|
口⑥④② |④-⑤⑥|
③③⑨⑦ |⑦⑧⑨-|
73
①②⑥口 |--①②|
⑤⑦⑨口 |③④⑤-|
⑧口④③ |⑥⑦⑧-|
口⑨口⑨ |⑨---|
74
∨口口① |①-②-|
③口口口 |③-④-|
口④口口 |⑤-⑥⑦|
口口②口 |⑧-⑨-|

口口⑤⑨
⑤⑧⑦⑥
⑨口口口
∧口口口
75
口口③口 |--①-|
口⑥⑤④ |②-③-|
⑦②口① |④⑤⑥-|
口⑨⑧⑦ |⑦⑧⑨-|
76
②②口 |--①-|
口口④④ |②-③-|
口③口① |④---|
口⑤⑤口 |⑤---|
77
⑩①②口 |①-②③|
③⑪⑥⑧ |④⑤⑥⑦|
⑩⑦⑨④ |⑧-⑨-|
⑤口口⑧ |⑩-⑪-|
78
∨口①口 |①-②-|
③口口口 |③-④-|
口口口② |--⑤⑥|
口④口口 |⑦-⑧-|

口口口口
⑤⑦⑥⑤
口口口口
口口口⑧
79
口⑥口⑥ |--①-|
口⑤④③ |--②-|
①②①② |③④⑤-|
⑦口⑦口 |⑥-⑦-|
80
①口②口 |--①-|
口口口口 |②-③-|
③口口口 |④-⑤⑥|
口口口口 |⑦---|

⑦口口
口⑤⑥⑦
口口④口
口口口口
81
口⑤口口 |①-②-|
口⑤<口 |③-④-|
口④口③ |⑤---|
口①口② |⑥---|

口口⑥口
口⑥口⑥
口口口口
口口口口
82
①口口② |①---|
口口口| |②---|
口口口∧ |--③-|
口口口① |④-⑤-|

口③口③
口④口口
⑤口口
口口口口
83
口口口口 |----|
③口②口 |----|
口①④口 |--①-|
口口口口 |②③④-|
84
①①口口 |----|
||口口 |①---|
∧∧口口 |----|
口口口口 |②-③-|

②②口口
口口口③
口口口口
口口③口
85
⑦口⑥口 |--①-|
⑤⑧④口 |②-③-|
①②③⑨ |④⑤⑥⑦|
口口⑨口 |⑧-⑨-|
86
口口口∨ |----|
口口口① |①---|
口口口口 |----|
口①口口 |②-③-|

口口口口
口口口②
③口口口
口口口口
87
②口②口 |①-②-|
口④口⑤ |--③-|
口口①口 |----|
③⑤③④ |④-⑤-|
88
口①口口 |--①-|
口口②口 |②-③-|
口③口口 |----|
口口口口 |④---|

④<>④
④口口④
口口口口
口口口口
89
①口口① |----|
口口口口 |①---|
②②< |②---|
口口口口 |③---|

口③③口
口口口口
口③③口
口口口口
最終更新:2022年04月07日 11:50