アットウィキロゴ
Sparkle Smilin'
BEMANI Sound Team "Qrispy Joybox" feat.いちか

BASIC

Level: 3
BPM: 180
Notes: 242

1
口口口口 |----|
口口口口 |----|
口口口口 |----|
口口口口 |----|
2
口口口口 |①---|
①口口口 |----|
口口口口 |----|
口口口口 |----|
3
口口口口 |①---|
口口口① |----|
口口口口 |----|
口口口口 |----|
4
口口口口 |①---|
口口口口 |----|
口①①口 |----|
口口口口 |----|
5
口口口口 |----|
口口口口 |----|
口口口口 |----|
口口口口 |----|
6
口口口口 |①---|
口口口口 |----|
①口口口 |----|
口口口口 |----|
7
口口口口 |①---|
口口口口 |----|
口口口① |----|
口口口口 |----|
8
口口口口 |①---|
口①①口 |----|
口口口口 |----|
口②②口 |--②-|
9
口口口口 |----|
口口口口 |----|
口口口口 |----|
口口口口 |----|
10
口口口口 |①---|
①口口① |--②-|
②口口② |----|
③口口③ |③---|
11
口口口口 |----|
口口口口 |----|
口口口口 |----|
口口口口 |----|
12
口口口口 |①---|
口③③口 |--②-|
口②②口 |----|
口①①口 |③---|
13
口口口口 |----|
口口口口 |----|
口口口口 |----|
口口口口 |----|
14
口口口口 |①---|
①口口① |--②-|
②口口② |----|
③口口③ |③---|
15
口口口口 |----|
口口口口 |----|
口口口口 |----|
口口口口 |----|
16
口口口口 |①---|
口①①口 |--②-|
③口口③ |----|
口②②口 |③---|
17
口口口口 |----|
口口口口 |----|
口口口口 |----|
口口口口 |----|
18
口口口口 |①---|
口口口① |----|
口口②口 |②---|
口口口口 |----|
19
口口口口 |①---|
口①①口 |----|
口口口口 |----|
口口口口 |----|
20
口口口口 |①---|
①口口口 |----|
口②口口 |②---|
口口口口 |----|
21
口口口口 |①---|
口①①口 |----|
口口口口 |----|
口口口口 |----|
22
口口②口 |①---|
口口口① |----|
口口口口 |②---|
口口口口 |----|
23
口①口口 |①---|
②口口口 |----|
口口口口 |②---|
口口口口 |----|
24
①口口① |①---|
口口口口 |----|
口②②口 |②---|
口口口口 |----|
25
口口口口 |①---|
②口口① |----|
口口口口 |②---|
口口口口 |----|
26
口口口口 |①---|
口口②口 |----|
口①口口 |②---|
口口口口 |----|
27
口①①口 |①---|
口口口口 |----|
口口口口 |----|
口口口口 |----|
28
口口口口 |①---|
口②口口 |----|
口口①口 |②---|
口口口口 |----|
29
口①①口 |①---|
口②②口 |----|
口口口口 |②---|
口口口口 |----|
30
口口口口 |①---|
口口口口 |----|
口①①口 |②---|
口②②口 |----|
31
口口口口 |①---|
②③口② |----|
①口③① |②---|
口口口口 |--③-|
32
口口口口 |----|
口口口口 |----|
口口口口 |----|
口口口口 |----|
33
口口口口 |----|
口口口口 |----|
口口口口 |①---|
口口口① |----|
34
口口口口 |①---|
口口口② |----|
口口口① |②---|
口口口口 |----|
35
口口②① |①---|
口口口口 |----|
口口口口 |②---|
口口口口 |----|
36
②①口口 |①---|
口口口口 |----|
口口口口 |②---|
口口口口 |----|
37
口口口口 |①---|
①口口口 |----|
②口口口 |②---|
口口口口 |----|
38
口口口口 |①---|
口口口口 |----|
口口口口 |②---|
①②口口 |----|
39
口口口口 |①---|
口口口口 |----|
口③③口 |②---|
口口①② |--③-|
40
口口口口 |----|
口口口口 |----|
口口口口 |----|
口口口口 |----|
41
口口口口 |----|
口①口口 |----|
口口口口 |①---|
口口口口 |----|
42
口口口口 |①---|
口②①口 |----|
口口口口 |②---|
口口口口 |----|
43
口口口口 |①---|
口②①口 |----|
口口口口 |②---|
口口口口 |----|
44
口口口口 |①---|
口②①口 |----|
口口口口 |②---|
口口口口 |----|
45
口口口口 |①---|
口②①口 |----|
口口口口 |②---|
口口口口 |----|
46
①口口① |①---|
口口口口 |----|
口②②口 |----|
口口口口 |--②-|
47
口口口口 |----|
②口口② |----|
①口口① |①---|
口口口口 |--②-|
48
②口口② |----|
口①①口 |----|
口口口口 |①---|
口口口口 |--②-|
49
口口口口 |----|
口口口口 |----|
①①①① |①---|
口口口口 |----|
50
①口①口 |①---|
口②口② |----|
口口口口 |②---|
口口口口 |----|
51
口口口口 |①---|
口口口口 |----|
①口①口 |②---|
口②口② |----|
52
③口口③ |①---|
③②②③ |--②-|
口口口口 |----|
①口①口 |--③-|
53
口口口口 |----|
口口口口 |----|
口口口口 |----|
口口口口 |----|
54
口口口口 |①---|
口②口口 |----|
①口②① |②---|
口口口口 |----|
55
口口口口 |①---|
①口②① |----|
口②口口 |②---|
口口口口 |----|
56
口①①口 |①---|
③口口③ |----|
③口口③ |②---|
口②②口 |--③-|
57
口口口口 |----|
口口口口 |----|
口口口口 |----|
口口口口 |----|
58
口①口① |①---|
②口②口 |----|
口口口口 |②---|
口口口口 |----|
59
口口口口 |①---|
口口口口 |----|
口①口① |②---|
②口②口 |----|
60
③③③③ |①---|
口②②口 |--②-|
口口口口 |----|
口①口① |--③-|
61
口口口口 |----|
口口口口 |----|
口口口口 |----|
口口口口 |----|
62
口口口口 |①---|
口口②口 |----|
①②口① |②---|
口口口口 |----|
63
口口口口 |①---|
①②口① |----|
口口②口 |②---|
口口口口 |----|
64
口①①口 |①---|
③口口③ |----|
③口口③ |②---|
口②②口 |--③-|
65
口口口口 |----|
口口口口 |----|
口口口口 |----|
口口口口 |----|
66
①①口口 |①---|
口口②② |----|
口口口口 |②---|
口口口口 |----|
67
口口口口 |①---|
口口口口 |----|
①①口口 |②---|
口口②② |----|
68
口口口口 |①---|
口口口口 |----|
口口②② |②---|
①①口口 |----|
69
口口②② |①---|
①①口口 |----|
口口口口 |②---|
口口口口 |----|
70
①口口口 |①---|
①口口口 |----|
口口口口 |②---|
口②②口 |----|
71
口①口口 |①---|
口①口口 |----|
口口口口 |②---|
口②②口 |----|
72
口口①口 |①---|
口口①口 |----|
口口口口 |②---|
口②②口 |----|
73
口口口① |①---|
口口口① |----|
口口口口 |②---|
口②②口 |----|
74
口②口② |①---|
口口口口 |----|
口口口口 |②---|
①口口① |----|
75
②口②口 |①---|
口口口口 |----|
口口口口 |②---|
①口口① |----|
76
口①口① |①---|
②口②口 |----|
口口口口 |②---|
口口口口 |----|
77
口口口口 |①---|
口口口口 |----|
口①口① |②---|
②口②口 |----|
78
②口②口 |①---|
口口口口 |----|
口口口口 |②---|
口①口① |----|
79
口②口② |①---|
口口口口 |----|
口口口口 |②---|
①口①口 |----|
80
②口口② |①---|
②③③② |----|
口①①口 |②---|
口③③口 |--③-|
81
口口口口 |----|
口口口口 |----|
口口口口 |----|
口口口口 |----|

accuracy: 100%
最終更新:2022年05月06日 04:52