アットウィキロゴ
Sparkle Smilin'
BEMANI Sound Team "Qrispy Joybox" feat.いちか

ADVANCED

Level: 7
BPM: 180
Notes: 349

1
口口口口 |----|
口口口口 |----|
口口口口 |----|
口口口口 |----|
2
③口口③ |----|
口口口口 |①---|
口②①口 |②---|
口口口口 |--③-|
3
口口口口 |----|
口①口口 |--①-|
口口①口 |----|
口口口口 |----|
4
口①①口 |①---|
口口口口 |--②-|
口口口口 |----|
口②②口 |----|
5
口口口口 |----|
口口口口 |----|
口口口口 |----|
口口口口 |----|
6
①口口① |----|
口口口口 |----|
口口口口 |①---|
口②②口 |--②-|
7
口口口口 |----|
①口口口 |----|
①口口口 |----|
口口口口 |①---|
8
②口口② |①---|
口口口① |--②-|
口口口①
口口口口

口口口口
口口口口
③③③③ |----|
口口口口 |--③-|
9
口口口口 |----|
口口口口 |----|
口口口口 |----|
口口口口 |----|
10
口口口口 |①---|
①①口口 |--②-|
口②②口 |----|
口口③③ |③---|
11
口口口① |----|
口口口口 |----|
口口口口 |①---|
口口口口 |----|
12
口口口口 |①---|
口口③③ |--②-|
口②②口 |----|
①①口口 |③---|
13
口口口口 |----|
口口口口 |----|
口口口口 |①---|
①口口口 |----|
14
口口口口 |①---|
①①口口 |--②-|
口②②口 |----|
口口③③ |③---|
15
口口口① |----|
口口口口 |----|
口口口口 |①---|
口口口口 |----|
16
口口口口 |①---|
口口③③ |--②-|
口①①口 |----|
②②口口 |③---|
17
口①口口 |----|
①口口口 |----|
口口口口 |①---|
口口口口 |----|
18
口口①① |①---|
口口口口 |----|
②口口口 |②---|
口②口口 |----|
19
口口口口 |①---|
①①口口 |----|
口口口② |②---|
口口②口 |----|
20
③口口口 |①---|
②口口口 |②---|
①④④口 |③---|
口口口口 |--④-|
21
口①①口 |--①-|
口口口口 |----|
口口口口 |----|
口口口口 |----|
22
口口口口 |①---|
口口口口 |----|
口②①口 |②---|
口①②口 |----|
23
口②②口 |①---|
口口口① |----|
口口①口 |②---|
口口口口 |----|
24
口口口口 |①---|
①口口口 |----|
口①口口 |②---|
口②②口 |----|
25
口口口口 |①---|
口口口口 |②---|
④③②① |③---|
口口口口 |④---|
26
口口口口 |①---|
口①①口 |----|
口口口口 |②---|
口②②口 |----|
27
口口口口 |①---|
①口口① |----|
口口口口 |②---|
口②②口 |----|
28
③口④④ |①---|
②口口口 |②---|
①口口口 |③---|
口口口口 |--④-|
29
口口口口 |----|
口口口口 |----|
①①口口 |①---|
口口口口 |----|
30
口口口口 |①---|
口①①口 |----|
口口口口 |②---|
口②②口 |----|
31
口口口口 |①---|
②口口③ |----|
③口口② |②---|
①口口① |--③-|
32
口口口口 |----|
口口口口 |----|
口口口口 |----|
口口口口 |----|
33
口口口口 |----|
口口口口 |----|
口口口口 |①---|
口①①口 |----|
34
口口口口 |①---|
口②口④ |②---|
①口③口 |③---|
口口口口 |④---|
35
口口口口 |①---|
④口②口 |②---|
口③口① |③---|
口口口口 |④---|
36
口口口口 |①---|
口②口④ |②---|
①口③口 |③---|
口口口口 |④---|
37
口口口口 |①---|
口口口口 |②---|
④口口① |③---|
口③②口 |④---|
38
口①①口 |①---|
口②②口 |----|
口口口口 |②---|
口口口口 |----|
39
口口口口 |①---|
②口口② |----|
口①①口 |②---|
口③③口 |--③-|
40
口口①口 |----|
口①口口 |----|
口口口口 |①---|
口口口口 |----|
41
口②口口 |①---|
口口②口 |----|
口口口口 |②---|
口①①口 |----|
42
口口口口 |①---|
口口口口 |----|
口①②口 |②---|
口口口口 |----|
43
口口口口 |①---|
口口口口 |----|
口①②口 |②---|
口口口口 |----|
44
口口口口 |①---|
口口口口 |----|
口①②口 |②---|
口口口口 |----|
45
口口口口 |①---|
口口口口 |----|
口①②口 |②---|
口口口口 |----|
46
口③③口 |①---|
①口口口 |----|
①口口口 |②---|
口②②口 |--③-|
47
口口口② |----|
口口口② |----|
口口口口 |①---|
口①①口 |--②-|
48
②口口口 |----|
②口口口 |----|
口口口口 |①---|
口①①口 |--②-|
49
口口①口 |----|
口②口口 |①---|
口口③口 |②---|
口口口口 |③---|
50
①口④① |①---|
口口口④ |②---|
②口口③ |③---|
口②③口 |④---|
51
口①口口 |①---|
①口口口 |②---|
②口口③ |③---|
口②③口 |----|
52
④口口④ |①---|
③①②③ |--②-|
口②①口 |--③-|
口口口口 |--④-|
53
口口口口 |----|
口口口口 |----|
口①①口 |①---|
口口口口 |----|
54
口口口口 |①---|
口口口口 |②---|
④口口① |③---|
口③②口 |④---|
55
口②③口 |①---|
①口口④ |②---|
口口口口 |③---|
口口口口 |④---|
56
②口②口 |①---|
口口口口 |--②-|
①口①口
口口口口

口口口口
口口口口
口③③口 |----|
口③③口 |--③-|
57
口口①口 |----|
口②口口 |①---|
口口③口 |②---|
口口口口 |③---|
58
①④口① |①---|
④口口口 |②---|
③口口② |③---|
口③②口 |④---|
59
口口①口 |①---|
口口口① |②---|
③口口② |③---|
口③②口 |----|
60
④口口④ |①---|
③②①③ |--②-|
口①②口 |--③-|
口口口口 |--④-|
61
口口口口 |----|
口口口口 |----|
口①①口 |①---|
口口口口 |----|
62
口口口口 |①---|
口口口口 |②---|
①口口④ |③---|
口②③口 |④---|
63
口③②口 |①---|
④口口① |②---|
口口口口 |③---|
口口口口 |④---|
64
口②口② |①---|
口口口口 |--②-|
口①口①
口口口口

口口口口
口口口口
口③③口 |----|
口③③口 |--③-|
65
口口口③ |----|
口口口② |①---|
口口口① |②---|
口口口口 |③---|
66
口①口口 |①---|
口口②口 |②---|
口②口口 |③---|
口口③口 |----|
67
口④口口 |①---|
③口口口 |②---|
口②口口 |③---|
①口口口 |④---|
68
口口①口 |①---|
口②口口 |②---|
口口②口 |③---|
口③口口 |----|
69
口口④口 |①---|
口口口③ |②---|
口口②口 |③---|
口口口① |④---|
70
口①口③ |①---|
口口口口 |②---|
口②口④ |③---|
口口口口 |④---|
71
①口③口 |①---|
口口口口 |②---|
②口④口 |③---|
口口口口 |④---|
72
②口口口 |①---|
口②口口 |--②-|
口口口口
口①①口

口口口③
口口③口
口口口口 |--③-|
口④④口 |--④-|
73
③口口口 |----|
口口口② |①---|
①口口口 |②---|
口口口口 |③---|
74
口①口① |①---|
②口②口 |②---|
口③口③ |③---|
④口④口 |④---|
75
④口④口 |①---|
口③口③ |②---|
②口②口 |③---|
口①口① |④---|
76
口①口① |①---|
②口②口 |②---|
口③口③ |③---|
④口④口 |④---|
77
④口④口 |①---|
口③口③ |②---|
②口②口 |③---|
口①口① |④---|
78
口①口① |①---|
口口②口 |②---|
口③口口 |③---|
④口④口 |④---|
79
①口①口 |①---|
口②口口 |②---|
口口③口 |③---|
口④口④ |④---|
80
②③口① |①---|
口口③口 |--②-|
②④口① |--③-|
口口④口 |--④-|
81
口口口口 |----|
口③③口 |①---|
②③③② |②---|
①口口① |③---|

accuracy: 100%
最終更新:2022年05月06日 04:55