アットウィキロゴ
Sparkle Smilin'
BEMANI Sound Team "Qrispy Joybox" feat.いちか

EXTREME

Level: 10.3
BPM: 180
Notes: 811

1
口口口口 |----|
口口口口 |----|
口口口口 |----|
口口口口 |----|
2
⑥口⑥口 |①---|
③口口⑤ |②-③-|
口②④口 |④-⑤-|
①口口① |--⑥-|
3
口口口口 |----|
口③④③ |①-②-|
①口口口 |--③-|
口②口口 |--④-|
4
口①口口 |①---|
口④口口 |--②-|
⑥口⑤③ |③-④-|
口②②口 |⑤-⑥-|
5
口口口口 |①-②-|
口口口① |③-④-|
口②口口
口④口③

口口口口
⑤⑦⑥口
口⑨⑧口 |⑤---|
口口口口 |⑥⑦⑧⑨|
6
口④①口 |①-②-|
口口⑥③ |③-④-|
②口口⑤ |⑤-⑥-|
口⑦⑦口 |--⑦-|
7
口口④口 |①-②-|
⑤①口② |③-④-|
口③口⑥ |⑤-⑥-|
口⑦口⑧ |⑦-⑧-|
8
口口口口 |①---|
口③②口 |②-③-|
①②③口
①口口口

口口口④
口口口④
口口口口 |--④-|
⑤口口⑤ |--⑤-|
9
口口②口 |----|
③①④口 |①---|
①⑤口⑥ |②-③-④-|
口口⑦口 |⑤-⑥-⑦-|
10
②口口④ |①---|
口②④① |②-③-|
口⑤③口 |--④-|
口③⑤口 |⑤---|
11
口口⑦口 |①-②-|
②⑥口① |③-④-|
④口⑤③ |⑤-⑥-|
口口口口 |⑦---|
12
⑤⑤⑥口 |①---|
口⑦口④ |②-③-|
③③口② |--④-|
①①口口 |⑤-⑥-⑦-|
13
口⑩口③ |①-②-③-|
④口⑪⑦ |④-⑤-⑥-|
⑧⑫①⑤ |⑦-⑧-⑨-|
⑥②口⑨ |⑩-⑪-⑫-|
14
②口口④ |①---|
口②④口 |②-③-|
口⑤③口 |--④-|
③口①⑤ |⑤---|
15
⑦口口口 |①-②-|
口③⑥口 |③-④-|
①口口④ |⑤-⑥-|
口⑤②口 |⑦---|
16
口⑤口口 |①---|
⑤口⑤口 |②-③-|
①口①④ |--④-|
③口③② |⑤---|
17
④口口口 |--①-|
口③口口 |②-③-|
口口②口 |④---|
口口口① |----|
18
⑧⑧口⑦ |①-②-|
⑥口⑤③ |③-④-|
口④⑤③ |⑤-⑥-|
②口①① |⑦-⑧-|
19
⑧口③口 |①-②-|
⑧④⑦③ |③-④-|
②⑥⑦⑤ |⑤-⑥-|
②⑥①① |⑦-⑧-|
20
口①口① |①---|
口②口② |②---|
口口口口
口口口口

口口口⑥
口口⑥口
⑤③口③ |③-④-|
⑤口④口 |⑤-⑥-|
21
口口②口 |①-②-|
①③⑧② |③-④-|
口⑦④口 |⑤-⑥-|
口⑤⑥口 |⑦-⑧-|
22
③①④② |①-②-|
口③⑧④ |③-④-|
⑤口⑥口 |⑤-⑥-|
⑦⑤⑧⑥ |⑦-⑧-|
23
⑦③口口 |①-②-|
③⑤口④ |③-④-|
⑦①⑥② |⑤-⑥-|
口⑤口⑧ |⑦-⑧-|
24
口⑤④② |①-②-|
③⑧①⑥ |③-④-|
口①⑦口 |⑤-⑥-|
口④⑤口 |⑦-⑧-|
25
⑨口⑥② |①-②③|
口口③口 |④-⑤-|
①④口⑤ |⑥-⑦-|
⑧口⑦口 |⑧-⑨-|
26
口⑧口③ |①-②-|
②⑧③① |③-④-|
④④⑦⑤ |⑤-⑥-|
⑥⑥⑤口 |⑦-⑧-|
27
②⑨口③ |①-②-|
②⑨③① |③-④-|
⑥④口⑤ |⑤-⑥⑦|
口⑦⑧口 |⑧-⑨-|
28
④⑧①③ |①-②-|
②⑧③① |③-④-|
口⑥⑤⑦ |⑤-⑥-|
⑥口口⑤ |⑦-⑧-|
29
口口③口 |①-②-|
⑧口③① |③-④-|
④口⑤⑦ |⑤-⑥-|
⑥②⑤⑦ |⑦-⑧-|
30
⑦④口① |①-②-|
口⑥③① |③-④-|
⑤②口口 |--⑤-|
口口口口 |⑥-⑦-|
31
口④⑤③ |--①-|
⑥口②⑥ |②-③-|
口⑤④① |④-⑤-|
⑥⑤④⑥ |--⑥-|
32
①口⑤口 |--①②|
口②③口 |③-④-|
④⑥口口 |⑤-⑥-|
口口口⑦ |--⑦-|
33
⑥⑦口⑧ |①-②③|
口①⑤② |④-⑤-|
⑥⑦③⑧ |⑥-⑦-|
口④口口 |--⑧-|
34
⑦⑤③口 |①-②-|
口口口② |③-④-|
口口口口 |⑤-⑥-|
⑧⑥④① |⑦-⑧-|
35
口口口口 |①-②-|
①③⑤⑦ |③-④-|
②④⑥⑧ |⑤-⑥-|
口口口口 |⑦-⑧-|
36
⑤③①口 |①-②-|
⑦口口口 |③-④-|
⑧口口口 |⑤-⑥-|
⑥④②口 |⑦-⑧-|
37
⑦⑦①③ |①-②-|
口①③⑤ |③-④-|
⑦②④⑥ |⑤-⑥-|
口口口口 |--⑦-|
38
⑥口口⑥ |①-②-|
⑤⑤口口 |③-④-|
口①④口 |⑤---|
⑤③②口 |⑥---|
39
口口口口 |①---|
口口①① |②---|
口口口口
口②②①

口③④口
口口口口
③③④④ |③-④-|
⑤口口⑤ |--⑤-|
40
口⑥⑥① |--①②|
⑤③②口 |③-④-|
⑤口口口 |⑤-⑥-|
口口④⑦ |--⑦-|
41
①⑥⑥口 |--①②|
口②③⑤ |③-④-|
口口口⑤ |⑤-⑥-|
⑦④口口 |--⑦-|
42
口口口口 |①---|
口①②口 |②---|
口④③口 |③---|
口口口口 |④---|
43
口口口口 |①---|
口①②口 |②---|
口④③口 |③---|
口口口口 |④---|
44
口口口口 |①---|
口①②口 |②---|
口④③口 |③---|
口口口口 |④---|
45
口口口口 |①---|
口①②口 |②---|
口④③口 |③---|
口口口口 |④---|
46
④①①口 |①---|
①口口① |②---|
⑤口口⑤ |③---|
②⑤⑤③ |④-⑤-|
47
口口口① |①---|
口口口口 |②---|
口②②口
口口口口

口⑤③⑤
口③⑤口
口口口口 |③-④-|
口口口④ |--⑤-|
48
①⑫⑪⑩ |①-②-③-|
②口口⑨ |④-⑤-⑥-|
③口口⑧ |⑦-⑧-⑨-|
④⑤⑥⑦ |⑩-⑪-⑫-|
49
①口口口 |①-②-③-|
②⑨⑪口 |④-⑤-⑥-|
③⑩⑧口 |⑦⑧⑨⑩|
④⑤⑥⑦ |⑪---|
50
①口口① |①---|
③口口② |②-③-|
①口口①
口③②口

⑦口口口
口⑥⑤口
口⑤④口 |④-⑤-|
⑦口口④ |⑥-⑦-|
51
口口⑥④ |①-②-|
⑥口⑦② |③-④-|
①⑦⑤⑥ |⑤-⑥-|
口⑥③④ |--⑦-|
52
①③口口 |①---|
口①口② |②-③-|
②口口口
口口③口

口口口⑤
口⑤⑤口
口⑤⑤口 |--④-|
⑤④口④ |--⑤-|
53
④②②⑥ |--①-|
③口口① |②-③-|
③口口① |④-⑤-|
⑦口口⑤ |⑥-⑦-|
54
③口口④ |①---|
口②②口 |②---|
④⑤口③ |③-④-|
⑤①①口 |--⑤-|
55
口口口口 |①-②-|
⑦⑤③① |③-④-|
⑧⑦⑥口 |⑤-⑥-|
⑧⑥④② |⑦-⑧-|
56
口②③③ |①---|
口③②② |②-③-|
口口口①
口口口①

④口口口
④口口口
口④口⑤ |--④-|
口⑤⑤口 |--⑤-|
57
⑤口⑥口 |①-②-|
口③口④ |③-④-|
①⑦②⑧ |⑤-⑥-|
口口口口 |⑦-⑧-|
58
口口口① |①---|
③口口② |②-③-|
口口口口
①③②口

⑦口口口
口⑥⑤口
口⑤④口 |④-⑤-|
⑦口口④ |⑥-⑦-|
59
口口⑥④ |①-②-|
⑥口⑦② |③-④-|
①⑦⑤⑥ |⑤-⑥-|
口⑥③④ |--⑦-|
60
①③口口 |①---|
口①口③ |②-③-|
②口口口
口口②口

⑤口口⑤
口⑤⑤口
口⑤⑤口 |--④-|
④口口④ |--⑤-|
61
口④④口 |--①-|
①口口③ |--②-|
①口口③ |--③-|
口②②口 |--④-|
62
口口口口 |①---|
口①②口 |②---|
口口口口
②口口①

④口口③
口口口口
③口⑤④ |③-④-|
口口口⑤ |--⑤-|
63
口口口口 |①-②-|
①③⑤⑦ |③-④-|
口⑥⑦⑧ |⑤-⑥-|
②④⑥⑧ |⑦-⑧-|
64
口④③口 |①---|
口口⑤口 |②-③-|
①⑤口口 |--④-|
①②④口 |--⑤-|
65
④⑤⑧① |①-②-|
③⑥⑦② |③-④-|
②⑦⑥③ |⑤-⑥-|
①⑧⑤④ |⑦-⑧-|
66
口④口① |①---|
口④口口 |②---|
②口③② |③-④-|
①口③⑤ |--⑤-|
67
口口口口 |①-②-|
⑤⑥口口 |③-④-|
④③⑦口 |⑤-⑥-|
①②⑧口 |⑦-⑧-|
68
①口口口 |①---|
口口口② |②---|
②口口口
口口口①

⑤口④口
口⑤④口
口③⑤口 |③-④-|
口③口⑤ |--⑤-|
69
口口口口 |--①-|
①⑦⑥口 |②-③-|
②口口⑤ |④-⑤-|
口③④口 |⑥-⑦-|
70
③口②口 |①-②-|
④口口口 |③④⑤⑥|
⑤①口口
⑥口口口

口⑨口⑧
口⑩口口
口⑪⑦口 |⑦-⑧-|
口⑫口口 |⑨⑩⑪⑫|
71
口口③口 |①-②-|
②口④口 |③④⑤⑥|
口口⑤①
口口⑥口

口⑧口⑨
口口口⑩
⑦口口⑪ |⑦-⑧-|
口口口⑫ |⑨⑩⑪⑫|
72
④④②⑤ |①---|
③①③⑤ |②-③-|
口口②口 |--④-|
口①口口 |--⑤-|
73
⑯⑮⑭⑬ |①②③④|
⑨⑩⑪⑫ |⑤⑥⑦⑧|
⑧⑦⑥⑤ |⑨⑩⑪⑫|
①②③④ |⑬⑭⑮⑯|
74
口口⑤⑤ |①---|
口④③③ |②---|
③口②② |③-④-|
口⑥①① |⑤-⑥-|
75
口口⑤⑤ |①---|
④口③③ |②---|
口③②② |③-④-|
⑥口①① |⑤-⑥-|
76
⑤口⑥⑥ |①---|
口口④④ |②-③-|
②③②② |④-⑤-|
⑦①①① |⑥-⑦-|
77
⑫⑪⑩⑨ |①-②-|
⑤⑥⑦⑧ |③-④-|
口④③③ |⑤⑥⑦⑧|
口②①① |⑨⑩⑪⑫|
78
口口口口 |①-②-|
口⑦⑧⑧ |③-④-|
①⑤②⑥ |⑤-⑥-|
③⑤④⑥ |⑦-⑧-|
79
①⑦②⑧ |①-②-|
⑦口⑧口 |③-④-|
③⑤④⑥ |⑤-⑥-|
口⑤口⑥ |⑦-⑧-|
80
①⑧⑥⑧ |①-②-|
⑧①⑦② |③-④-|
③⑤④⑥ |⑤-⑥-|
③⑧④口 |⑦-⑧-|
81
①口口口 |①-②-|
口口口② |③-④-|
③口口口
口口口④

口⑧⑨口
⑦口口⑩
口口口⑥ |⑤-⑥-|
⑤口口口 |⑦⑧⑨⑩|

accuracy: 100%
最終更新:2022年05月06日 04:55