アットウィキロゴ
Get On The Floor
RoughSketch

BASIC

Level: 3
BPM: 150
Notes: 229

1
口口口口 |----|
口口口口 |----|
口口口口 |----|
口口口口 |----|
2
口口口口 |①---|
口口口口 |----|
①①①① |----|
口口口口 |----|
3
口口口口 |----|
口口口口 |----|
口口口口 |----|
口口口口 |----|
4
口口口口 |①---|
①①①① |----|
口口口口 |----|
口口口口 |----|
5
口口口口 |----|
口口口口 |----|
口口口口 |----|
口口口口 |----|
6
口口②① |①---|
口口口口 |----|
口口口口 |②---|
口口口口 |----|
7
②①口口 |①---|
口口口口 |----|
口口口口 |②---|
口口口口 |----|
8
口口口口 |①---|
口①①口 |----|
口②②口 |②---|
口口口口 |----|
9
口口口口 |----|
口口口口 |----|
口口口口 |----|
口口口口 |----|
10
口口口口 |①---|
口口②① |----|
口口口口 |②---|
口口口口 |----|
11
口口口口 |①---|
②①口口 |----|
口口口口 |②---|
口口口口 |----|
12
①②口口 |①---|
口口口口 |----|
口口口口 |②---|
口口口口 |----|
13
口口①口 |①---|
口口口口 |----|
口②②口 |----|
口口口口 |②---|
14
口口口口 |①---|
①②口口 |----|
口口口口 |②---|
口口口口 |----|
15
口口口口 |①---|
口口①② |----|
口口口口 |②---|
口口口口 |----|
16
口口②① |①---|
口口口口 |----|
口口口口 |②---|
口口口口 |----|
17
口口口口 |----|
口①口口 |----|
口口①口 |①---|
口口口口 |----|
18
口②口① |①---|
口④口③ |②---|
口口口口 |③---|
口口口口 |④---|
19
口口口口 |①---|
口口口口 |②---|
口②口① |③---|
口口口③ |----|
20
口口口口 |①---|
①口②口 |②---|
③口④口 |③---|
口口口口 |④---|
21
口口口口 |①---|
口③③口 |②---|
口口口口 |③---|
①口②口 |----|
22
①口②口 |①---|
③口④口 |②---|
口口口口 |③---|
口口口口 |④---|
23
口口口口 |①---|
口口口口 |②---|
①口②口 |③---|
③口口口 |----|
24
口口口口 |①---|
口①①口 |----|
口②②口 |②---|
口口口口 |----|
25
口口口口 |①---|
口口口口 |----|
口口口口 |----|
口①①口 |----|
26
口口口口 |①---|
①口口① |----|
②口口② |②---|
口口口口 |----|
27
口口口口 |①---|
口口口口 |----|
口口口口 |②---|
①②②① |----|
28
口口①口 |①---|
口②口口 |----|
口口口口 |②---|
口口口口 |----|
29
口口口口 |①---|
口口口口 |----|
口口①口 |②---|
口②口口 |----|
30
口口口口 |①---|
①口口① |----|
②口口② |②---|
口口口口 |----|
31
口口口口 |①---|
口口口口 |----|
口口口口 |②---|
①②②① |----|
32
口①口口 |①---|
口口②口 |----|
口口口口 |②---|
口口口口 |----|
33
口口口口 |①---|
口口口口 |----|
口①口口 |②---|
口口②口 |----|
34
①口口口 |①---|
口②口口 |----|
口口口口 |②---|
口口口口 |----|
35
口口口口 |①---|
口口口口 |----|
口口①口 |②---|
口口口② |----|
36
口口口① |①---|
口口②口 |----|
口口口口 |②---|
口口口口 |----|
37
口口口口 |①---|
口口口口 |----|
口①口口 |②---|
②口口口 |----|
38
口口①口 |①---|
口②口口 |----|
口口口口 |②---|
口口口口 |----|
39
口口口口 |①---|
口口口口 |----|
口口①口 |②---|
口②口口 |----|
40
口②①口 |①---|
口④③口 |②---|
口口口口 |③---|
口口口口 |④---|
41
口口口口 |①---|
口口口口 |②---|
口②①口 |③---|
口④③口 |④---|
42
口口口口 |①---|
②口口② |----|
①口口① |②---|
口口口口 |----|
43
①口口① |①---|
口②口口 |----|
口口②口 |②---|
口口口口 |----|
44
口口口口 |①---|
④③②① |②---|
口口口口 |③---|
口口口口 |④---|
45
口口口口 |①---|
口口口口 |②---|
④③②① |③---|
口口口口 |④---|
46
①③口口 |①---|
②④口口 |②---|
口口口口 |③---|
口口口口 |④---|
47
口口①③ |①---|
口口②④ |②---|
口口口口 |③---|
口口口口 |④---|
48
口口口口 |①---|
①②③④ |②---|
口口口口 |③---|
口口口口 |④---|
49
口口口口 |①---|
口口口口 |②---|
①②③④ |③---|
口口口口 |④---|
50
口口③① |①---|
口口④② |②---|
口口口口 |③---|
口口口口 |④---|
51
口①口口 |①---|
口②口口 |②---|
口③③口 |③---|
口口口口 |----|
52
①口口① |①---|
②口口② |----|
口口口口 |②---|
口口口口 |----|
53
口口口口 |①---|
口口口口 |----|
①口口① |②---|
②②②② |----|
54
口口口口 |①---|
口③口① |②---|
④口②口 |③---|
口口口口 |④---|
55
①口③口 |①---|
口②口④ |②---|
口口口口 |③---|
口口口口 |④---|
56
①口口① |①---|
②口口② |----|
口口口口 |②---|
口口口口 |----|
57
口口口口 |①---|
口口口口 |----|
①口②① |②---|
口②口口 |----|
58
口口口口 |①---|
①口③口 |②---|
口②口④ |③---|
口口口口 |④---|
59
①②②① |①---|
口口口口 |----|
口③③口 |②---|
口口口口 |③---|
60
①口口① |①---|
②口口② |----|
口口口口 |②---|
口口口口 |----|
61
口口口口 |①---|
口口口口 |----|
①口口① |②---|
②口口② |----|
62
口口①口 |①---|
口②口口 |②---|
口口③口 |③---|
口④口口 |④---|
63
口口口口 |①---|
口②①口 |----|
口①②口 |②---|
口口口口 |----|
64
口③③口 |①---|
②口口① |②---|
口④④口 |③---|
口口口口 |④---|
65
口口口口 |①---|
口③③口 |②---|
①口口② |③---|
口④④口 |④---|
66
口口口口 |①---|
④③②① |②---|
④③②① |③---|
口口口口 |④---|
67
④①①④ |①---|
口口口口 |②---|
口口口口 |③---|
③②②③ |④---|
68
口口口口 |①---|
口①①口 |----|
口①①口 |----|
口口口口 |----|

accuracy: 100%
最終更新:2022年04月07日 11:55