アットウィキロゴ
Get On The Floor
RoughSketch

ADVANCED

Level: 7
BPM: 150
Notes: 464

1
口口口口 |----|
口口口口 |----|
口口口口 |----|
口口口口 |----|
2
口口口口 |①---|
①①①① |----|
口口口口 |----|
口口口口 |----|
3
口口口口 |①---|
口口口口 |----|
口②②口 |②---|
口①①口 |----|
4
口口口口 |①---|
①①①① |----|
口口口口 |----|
口口口口 |----|
5
口口口口 |①---|
口口口口 |----|
②口口② |②---|
①口口① |----|
6
①口口① |①---|
口口②口 |②---|
口③口口 |③---|
④口口口 |④---|
7
①口口① |①---|
口②口口 |②---|
口口③口 |③---|
口口口④ |④---|
8
①口口① |①-②-|
⑧③②⑧ |③-④-|
口⑤④口 |⑤-⑥-|
口⑦⑥口 |⑦-⑧-|
9
口①口① |----|
口口口口 |----|
口口口口 |①---|
②口②口 |②---|
10
①口②口 |①---|
①口②口 |②---|
口③口④ |③---|
口③口④ |④---|
11
口①②口 |①---|
①口口② |②---|
口③口口 |③---|
口口③口 |----|
12
口②口① |①---|
口②口① |②---|
④口③口 |③---|
④口③口 |④---|
13
口②①口 |①-②-|
口④③口 |③-④-|
口口口口 |----|
口口口口 |----|
14
口②口① |①---|
口②口① |②---|
④口③口 |③---|
④口③口 |④---|
15
口②①口 |①---|
②口口① |②---|
口口③口 |③---|
口③口口 |----|
16
①口③① |①---|
口④口口 |②---|
②口⑤② |③-④-|
口⑥口口 |⑤-⑥-|
17
口口口口 |----|
口②①口 |①---|
口①②口 |②---|
口③③口 |③---|
18
③③①① |①---|
口口口口 |②---|
②②④④ |③---|
口口口口 |④---|
19
口口①口 |①---|
②口口① |②---|
口②口口
口口口口

③口④③
口口口口
口口⑤口 |③---|
口口口口 |④-⑤-|
20
口口口口 |①---|
①①③③ |②---|
口口⑤口 |③---|
④④②② |④-⑤-|
21
②②①① |①-②-|
④④③③ |③-④-|
口口口口 |⑤---|
口⑤⑤口 |----|
22
③③①① |①---|
口⑤口口 |②---|
②②④④ |③---|
口口口口 |④-⑤-|
23
②④口① |①---|
②口⑤① |②---|
口⑥口口 |③-④-|
口③③口 |⑤-⑥-|
24
②②②② |①---|
①口口① |----|
口口口口 |②---|
口口口口 |----|
25
口口口口 |①---|
口口口口 |----|
口口口口 |----|
①①①① |----|
26
口口①口 |①---|
口口口① |--②-|
②口口口
口口口口

口口⑤口
口口口口
口③④口 |③-④-|
口口口口 |--⑤-|
27
口口口口 |①-②-|
①口口口 |③-④-|
口④④② |----|
③口口口 |----|
28
口⑤口① |①-②-|
⑤口口② |③-④-|
口口口③ |----|
口口口④ |⑤---|
29
⑤口口口 |①-②-|
口⑥②口 |③-④-|
口③⑦① |⑤-⑥-|
口口④口 |⑦---|
30
口口①口 |①---|
口口口① |--②-|
②口口口
口口口口

口口⑤口
口口口口
口③④口 |③-④-|
口口口口 |--⑤-|
31
口口口口 |①-②-|
①口口口 |③-④-|
口④④② |----|
③口口口 |----|
32
①口⑤口 |①-②-|
②口口⑤ |③-④-|
③口口口 |----|
④口口口 |⑤---|
33
口⑤口⑤ |①-②-|
口②口口 |③-④-|
①口③口 |⑤---|
⑥④⑥口 |⑥---|
34
①口②口 |①---|
③口④口 |②---|
口口口口 |③---|
口口口口 |④---|
35
口口口口 |①---|
口口口口 |②---|
①口②口 |③---|
③口④口 |④---|
36
口②口① |①---|
口④口③ |②---|
口口口口 |③---|
口口口口 |④---|
37
口口口口 |①---|
口口口口 |②---|
口②口① |③---|
口④口③ |④---|
38
①口②口 |①---|
①口②口 |②---|
③口④口 |③---|
③口④口 |④---|
39
口①口② |①---|
口①口② |②---|
口③口④ |③---|
口③口④ |④---|
40
①口②口 |①-②-|
③口④口 |③-④-|
⑤口⑥口 |⑤-⑥-|
⑦口⑧口 |⑦-⑧-|
41
口②口① |①-②-|
口④口③ |③-④-|
口⑥口⑤ |⑤-⑥-|
口⑧口⑦ |⑦-⑧-|
42
①④⑥① |①---|
口口口口 |②---|
②⑤③② |③-④-|
口口口口 |⑤-⑥-|
43
①口口① |----|
口口口口 |----|
口②②口 |①---|
口②②口 |②---|
44
②口①口 |①---|
口口口① |②-③-|
③口口口
口口口口

口⑥⑦口
口口口口
口④⑤口 |④-⑤-|
口口口口 |⑥-⑦-|
45
⑤⑤口口 |①-②-|
①口口口 |③-④-|
口④④② |⑤---|
③⑥⑥口 |⑥---|
46
口⑥口① |①-②-|
⑥口口② |③-④-|
口口口③ |⑤---|
口⑤口④ |⑥---|
47
⑤口口口 |①-②-|
口⑥②口 |③-④-|
口③⑦① |⑤-⑥-|
口口④口 |⑦---|
48
②口①口 |①---|
口口口① |②-③-|
③口口口
口口口口

口⑥⑦口
口口口口
口④⑤口 |④-⑤-|
口口口口 |⑥-⑦-|
49
口⑤口⑤ |①-②-|
①口口口 |③-④-|
口④④② |⑤---|
③⑥⑥口 |⑥---|
50
①口⑥口 |①-②-|
②口口⑥ |③-④-|
③口口口 |⑤---|
④口⑤口 |⑥---|
51
口⑤口⑤ |①-②-|
口②口口 |③-④-|
①口③口 |⑤---|
⑥④⑥口 |⑥---|
52
口②②口 |①---|
①③③① |--②-|
①④④① |③-④-|
口口口口 |----|
53
口口口① |①-②-|
②口口口 |③-④-|
口口口③ |----|
④口口口 |----|
54
①⑥口① |①-②-|
⑥口口② |③-④-|
③口口③ |⑤---|
口⑤口④ |⑥---|
55
⑤口口口 |①-②-|
口⑥②口 |③-④-|
口③⑦① |⑤-⑥-|
口口④口 |⑦---|
56
口②②口 |①---|
①③③① |--②-|
①④④① |③-④-|
口口口口 |----|
57
①口口口 |①-②-|
口口口② |③-④-|
③口口口 |----|
口口口④ |----|
58
①⑧口① |①-②-|
②口⑦口 |③-④-|
③⑥口③ |⑤-⑥-|
④口⑤口 |⑦-⑧-|
59
⑥口①① |①-②-|
②②口⑤ |③-④-|
⑥口③③ |⑤---|
④④口⑤ |⑥---|
60
口口口① |①---|
口口②口 |②---|
口③口口 |③---|
④口口口 |④---|
61
①口口口 |①---|
口②口口 |②---|
口口③口 |③---|
口口口④ |④---|
62
②⑤⑤① |①-②-|
口⑥⑥口 |③-④-|
④⑦⑦③ |⑤-⑥-|
口⑧⑧口 |⑦-⑧-|
63
⑥口口④ |①---|
口口口口 |②---|
②⑤③① |③-④-|
口口口口 |⑤-⑥-|
64
⑥①口④ |①---|
口口口① |②---|
口⑤③口 |③-④-|
②口②口 |⑤-⑥-|
65
口④①口 |①---|
①口口口 |②---|
⑤口③口 |③-④-|
口②口② |⑤---|
66
口⑦口⑤ |①-②-|
口①口① |③---|
口②口② |④-⑤-|
⑥③④③ |⑥-⑦-|
67
⑥⑥⑥⑥ |①---|
⑤口口② |②-③-|
①①①① |④-⑤-|
口④③口 |⑥---|
68
口口口口 |①---|
口①①口 |----|
口①①口 |----|
口口口口 |----|

accuracy: 100%
最終更新:2022年04月07日 11:55