アットウィキロゴ
Get On The Floor
RoughSketch

EXTREME

Level: 10.0
BPM : 150
Notes: 747

1
口口口口 |----|
口口口口 |----|
口口口口 |----|
口口口口 |----|
2
口口口口 |①---|
①①①① |----|
口口口口 |----|
口口口口 |----|
3
口口口口 |①---|
②口口② |----|
③口口③ |②---|
口①①口 |③---|
4
口①①口 |①---|
口①①口 |----|
口口口口 |----|
口口口口 |----|
5
口口口口 |①---|
②口口② |----|
③口口③ |②---|
口①①口 |③---|
6
①①①① |①---|
口②口口 |②---|
口口③口 |③---|
口④口口 |④---|
7
⑤①①① |①-②-|
②口⑥口 |③-④-|
⑦口③口 |⑤-⑥-|
④口⑧口 |⑦-⑧-|
8
⑦③⑥④ |①②③④|
①⑪⑭⑩ |⑤⑥⑦⑧|
⑬⑤⑧② |⑨⑩⑪⑫|
⑨⑮⑫⑯ |⑬⑭⑮⑯|
9
①口口① |----|
口口口口 |----|
口②口② |①---|
②口②口 |②---|
10
口②①口 |①---|
②口口① |②---|
④口口③ |③---|
口④③口 |④---|
11
口②①口 |①---|
②④口① |②---|
⑥口⑤③ |③--④|
口口③口 |--⑤⑥|
12
口②①口 |①---|
②口口① |②---|
④口口③ |③---|
口④③口 |④---|
13
①口口② |①-②-|
③口口口 |③④⑤-|
口口④口
⑤口口口

⑨口口口
口口口口
⑨口口⑥ |-⑥⑦⑧|
口⑧⑦口 |⑨---|
14
口②①③ |①---|
②口口① |②-③-|
⑤口口④ |④---|
口⑤④口 |⑤---|
15
口②①③ |①---|
②⑤口① |②-③-|
⑦口⑥④ |④--⑤|
口口④口 |--⑥⑦|
16
口②①③ |①---|
②⑤④① |②-③-|
⑦⑦⑥⑥ |④-⑤-|
⑤口口④ |⑥-⑦-|
17
口④④⑦ |--①-|
②⑥口① |②-③-|
口口口口 |④---|
③⑤⑤口 |⑤-⑥⑦|
18
②④④口 |①-②-|
②口口口 |③-④-|
口口③①
口口口口

口口口⑥
口口口口
⑧⑤口⑦ |⑤-⑥⑦|
口口口口 |⑧---|
19
④口口口 |①-②-|
口口③① |③-④⑤|
⑤口口口
②②口口

口⑨口口
⑧⑥⑩口
口口口口 |⑥--⑦|
口口⑦⑦ |⑧-⑨⑩|
20
②口②④ |①-②-|
口⑥⑨④ |③-④-|
⑧⑤③① |⑤-⑥⑦|
口⑦⑩口 |⑧-⑨⑩|
21
③①①② |①-②-|
④口口④ |③-④-|
口③②口 |⑤---|
⑤口口⑤ |----|
22
口④④② |①-②-|
口口口② |③-④-|
①③口口
口口口口

⑥口口口
口口口⑨
⑦口⑤⑧ |⑤-⑥⑦|
口⑩口口 |⑧-⑨⑩|
23
口口④口 |①-②-|
①③口口 |③-④⑤|
口口⑤口
口口②②

⑦口口口
口口⑥⑨
⑧口口⑩ |⑥-⑦⑧|
口口口⑪ |⑨⑩⑪-|
24
口①口① |①-②-|
②口口口 |--③④|
口①口口
口④③口

口口⑤口
⑩⑥口⑦
口⑨⑧⑤ |⑤-⑥-|
口口口口 |⑦⑧⑨⑩|
25
口口口① |①---|
口口①口 |----|
口口口口 |----|
②口口② |②---|
26
口①①口 |①---|
口②③口 |--②③|
①口口①
口口口口

⑤口口⑥
口口口④
口⑤口⑥ |④-⑤-|
口口口口 |--⑥-|
27
口口口口 |①-②-|
①④④口 |③-④-|
口口②口
③口口口

⑤口口口
⑥口口口
口口口口 |----|
口口口口 |--⑤⑥|
28
口口①④ |①-②-|
口②⑦① |③-④-|
②⑥③口 |--⑤-|
④口⑤③ |⑥-⑦-|
29
②①口⑤ |①-②-|
①③⑥口 |③-④-|
口⑦④口 |⑤-⑥-|
口口口口 |⑦---|
30
口①①口 |①---|
口③②口 |--②③|
①口口①
口口口口

⑥口口⑤
④口口口
⑥口⑤口 |④-⑤-|
口口口口 |--⑥-|
31
口口口口 |①-②-|
口④④① |③-④-|
口②口口
口口口③

口口口⑤
口口口⑥
口口口口 |----|
口口口口 |--⑤⑥|
32
④①口口 |①-②-|
①⑦②口 |③-④-|
口③⑥② |--⑤-|
③⑤口④ |⑥-⑦-|
33
⑤⑤①② |①-②-|
⑤口③① |③-④-|
口④口⑥ |⑤---|
口口⑥⑥ |⑥---|
34
⑥口⑤① |①---|
口④口② |②-③④|
③⑧口⑤ |⑤-⑥-|
①口口⑦ |⑦-⑧-|
35
口①口① |①-②-|
口③口③ |③-④-|
⑦口②⑤ |⑤---|
④⑧口⑥ |⑥-⑦⑧|
36
⑧②口① |①-②-|
③⑦口③ |③-④-|
⑥④①⑤ |⑤-⑥-|
口口口⑦ |⑦-⑧-|
37
口①口① |①-②-|
②⑤④③ |③-④-|
⑥③口⑤ |⑤-⑥-|
口⑦口⑦ |⑦---|
38
①⑦②① |①-②-|
⑥口④③ |③-④⑤|
④⑤⑦⑥ |⑥-⑦-|
⑨口⑨⑧ |⑧-⑨-|
39
①口②① |①-②-|
口②④③ |③-④-|
③口⑥⑤ |⑤-⑥-|
口④⑧⑦ |⑦-⑧-|
40
③①②④ |①-②-|
①③④② |③-④-|
⑤⑦⑧⑥ |⑤-⑥-|
⑦⑤⑥⑧ |⑦-⑧-|
41
①⑦口④ |①②③④|
口③口② |⑤⑥⑦⑧|
⑤口口⑧
口口⑥口

⑮口⑭口
⑪口⑩口
口⑬⑯口 |⑨⑩⑪⑫|
⑨口口⑫ |⑬⑭⑮⑯|
42
口②口口 |①---|
口①②① |②---|
②口口口
口口①口

⑥口③④
口⑤口⑤
口③口③ |③-④-|
口口⑤口 |⑤-⑥-|
43
口④④口 |①---|
③口口③ |②---|
④②②④ |③---|
①③③① |④---|
44
①口⑥⑧ |①---|
口③口⑥ |②-③④|
口④⑧口 |⑤-⑥-|
⑦⑤②① |⑦-⑧-|
45
③①口口 |①-②-|
①④②⑦ |③-④-|
口②口⑧ |⑤---|
⑥⑤③① |⑥-⑦⑧|
46
②①口⑧ |①-②-|
①③⑦口 |③-④-|
口口④⑥ |⑤-⑥-|
⑦⑤③① |⑦-⑧-|
47
口①④口 |①-②-|
口③口口 |③-④-|
①口②口
口口③①

口口口⑥
口口⑤⑦
⑧⑧口⑤ |⑤-⑥-|
⑦⑤口口 |⑦-⑧-|
48
①②⑤⑦ |①---|
口⑧④口 |②-③④|
⑥口③口 |⑤-⑥-|
⑧⑥口① |⑦-⑧-|
49
①③⑤⑥ |①-②-|
⑧口②③ |③-④-|
⑦②口① |⑤---|
口④①口 |⑥-⑦⑧|
50
①③口口 |①-②-|
口口②② |③-④-|
口③口①
口口①④

口口⑤⑦
口口口⑧
口口⑦口 |⑤-⑥-|
口⑥口口 |⑦-⑧-|
51
⑤①口⑤ |①-②-|
口⑦④口 |③-④-|
①③⑧口 |⑤---|
⑥口②⑥ |⑥-⑦⑧|
52
⑥③口⑥ |①---|
①⑧④① |②-③④|
①⑤⑧① |⑤-⑥-|
⑦②②⑦ |⑦-⑧-|
53
口③⑦⑦ |①-②-|
②⑩④① |③④⑤⑥|
②⑤⑨① |⑦-⑧-|
⑧⑧⑥口 |--⑨⑩|
54
①口口③ |①-②-|
②口④① |③-④-|
③口口口
口口②④

⑦⑧⑧口
口口口⑦
口口⑥口 |⑤-⑥-|
⑤⑤口口 |⑦-⑧-|
55
口口口① |①-②-|
①④②口 |③-④-|
②口口①
③口③口

⑤⑦口口
⑦口口⑤
口⑤⑥口 |⑤-⑥-|
口⑧⑨⑦ |⑦-⑧⑨|
56
口口口口 |①---|
口③口口 |--②③|
①口②①
口口口口

⑤口④⑤
⑥口口⑥
⑦口口⑦ |④-⑤⑥|
口⑧⑧口 |⑦-⑧-|
57
口口③口 |①-②-|
口④①④ |③-④-|
口②③口
②口口①

口⑤口⑥
⑦口⑨口
⑤⑧口⑥ |⑤-⑥-|
口口⑦口 |⑦-⑧⑨|
58
①口①口 |①-②-|
口②口② |③-④-|
③口③口
口④口④

口⑦⑪⑤
⑨口口口
口⑫口⑩ |⑤⑥⑦⑧|
⑥口⑧口 |⑨⑩⑪⑫|
59
口口口口 |①-②-|
口④②① |③-④-|
③口①口
④③口②

⑤⑥⑥⑤
口口口口
口⑥⑥口 |⑤---|
口口口口 |⑥---|
60
③口口口 |①---|
口③⑤口 |②-③-|
口⑦⑦⑤ |④-⑤-|
⑥④②① |⑥-⑦-|
61
⑦⑤③① |①-②-|
③②⑦⑤ |③-④-|
①⑧⑥口 |⑤-⑥-|
口④口口 |⑦-⑧-|
62
⑧⑯⑮⑦ |①②③④|
⑥⑭⑬⑤ |⑤⑥⑦⑧|
④⑫⑪③ |⑨⑩⑪⑫|
②⑩⑨① |⑬⑭⑮⑯|
63
③⑦⑤口 |①---|
①口口① |②--③|
⑥口口④ |④-⑤-|
②⑥④② |⑥-⑦-|
64
口⑤⑦① |①---|
④口③⑥ |②--③|
⑤④⑥⑦ |④-⑤-|
②口②① |⑥-⑦-|
65
①口口口 |①---|
口③口口 |②--③|
口口口口
①②口②

⑥⑥⑤口
口口口④
⑦⑦④⑤ |④-⑤-|
口口口口 |⑥-⑦-|
66
口口口口 |①-②-|
②③①口 |③-④-|
口口口口
②③①④

⑥⑪⑧口
口口口⑤
⑨口⑦⑩ |⑤⑥⑦⑧|
口口⑫口 |⑨⑩⑪⑫|
67
⑤⑪⑥② |①---|
⑮⑭⑬⑫ |②③④⑤|
⑨①口⑧ |⑥⑦⑧⑨|
③⑦⑩④ |⑩-⑪-⑫⑬⑭⑮|
68
口口口口 |①---|
口口口口 |----|
口①①口 |----|
口口口口 |----|

accuracy: 100%
最終更新:2022年04月07日 11:55