アットウィキロゴ
Crazy Shuffle
Yooh

EXTREME

Level: 10.5
BPM: 128
Notes(hold): 727(45)

1
口口口口 |----|
口口口口 |----|
口口口口 |----|
口口口口 |----|
2
口口口口 |①--②|
口口口① |--③-|
④口⑤⑥ |-④--|
②口③① |⑤-⑥-|
3
口口口口 |①--②|
①口口口 |--③-|
⑥⑤口④ |-④--|
①③口② |⑤-⑥-|
4
口口⑤⑥ |①--②|
口口口① |--③-|
④口口口 |-④--|
②口③① |⑤-⑥-|
5
口口口口 |①-②-|
口口口① |③-④-|
口口口∨ |⑤-⑥-|
口口口① |⑦-⑧-|

口口口口
口口③口
口口∨口
口口③②

口口口口
口⑤口口
口∨口口
口⑤④口

口口口口
⑦口口口
⑧口口口
口⑥口口
6
口口⑥③ |①--②|
口口③⑥ |③-④-|
⑦⑥口⑤ |-⑤--|
①④①② |⑥-⑦-|
7
口口⑥③ |①--②|
口口③⑥ |③-④-|
⑤口⑥⑦ |-⑤--|
②①④① |⑥-⑦-|
8
⑦口⑥③ |①--②|
口口③⑥ |③-④-|
口口口⑤ |-⑤--|
①④①② |⑥-⑦-|
9
口口口口 |①-②-|
①口口口 |③-④-|
∨口口口 |⑤-⑥-|
①口口口 |⑦-⑧-|

口口口口
口③口口
口∨口口
②③口口

口口口口
口口⑤口
口口∨口
口④⑤口

口口口口
口口口口
⑦口口⑧
口口⑥口
10
∨口口口 |①--②|
口口口③ |--③-|
口②口口 |-④--|
①口口① |⑤-⑥-|

口口口口
口口口口
口⑤⑥口
口口口④
11
口口口口 |①--②|
口口口① |--③-|
口③口口 |-④--|
口口口② |⑤-⑥-|

口口口口
口口口④
口口口口
口口⑥⑤
12
口口口③ |①--②|
口∨②口 |--③-|
口口口① |-④--|
口①口口 |⑤-⑥-|

口口⑤口
口口⑥口
口口口④
口口口口
13
口口③口 |①--②|
口口口② |--③-|
口口①口 |-④--|
口口口口 |⑤---|

口口口口
口口口⑤
口口④口
口口口口
14
口⑥口口 |①---|
⑤口④口 |②-③-|
口口∨③ |④---|
口口①② |⑤-⑥-|
15
口⑥①口 |①---|
⑤口④口 |②-③-|
口口口③ |④---|
口口口② |⑤-⑥-|
16
③⑤①⑦ |①-②-|
口口口口 |③-④-|
②⑧④⑥ |⑤-⑥-|
①①①口 |⑦-⑧-|
17
口②①③ |①---|
④①②口 |②---|
⑥⑥⑤⑤ |③-④-|
⑥⑥⑤⑤ |⑤-⑥-|
18
①③⑧口 |①-②③--|
⑪⑨②④ |④--⑤--|
⑥口⑦⑩ |⑥--⑦-⑧|
口口⑤口 |⑨-⑩--⑪|
19
①③⑧口 |①-②③--|
口⑨②④ |④--⑤--|
⑥口⑦⑩ |⑥--⑦-⑧|
口口⑤口 |⑨-⑩---|
20
①③⑧口 |①-②③--|
⑪⑨②④ |④--⑤--|
⑥口⑦⑩ |⑥--⑦-⑧|
口口⑤口 |⑨-⑩--⑪|
21
①③口口 |①-②③--|
口口②④ |④--⑤--|
⑥口⑧⑦ |⑥-⑦⑧|
口口⑤口 |⑨-⑩-|

口∨口口
口口口口
口⑨口口
口口口口

口口口口
口口口口
口⑩口口
口口口口
22
口⑧③① |①-②③--|
④②⑨⑪ |④--⑤--|
⑩⑦口⑥ |⑥--⑦-⑧|
口⑤口口 |⑨-⑩--⑪|
23
口⑧③① |①-②③--|
④②⑨⑪ |④--⑤--|
⑩⑦口⑥ |⑥--⑦-⑧|
口⑤口⑪ |⑨-⑩⑪--|
24
①⑧③① |①-②③--|
④②⑨⑪ |④--⑤--|
⑩⑦口⑥ |⑥--⑦-⑧|
口⑤口口 |⑨-⑩--⑪|
25
②口口③ |①--②|
口②③口 |--③-|
口口①口 |-④--|
①口口 |⑤-⑥-|

口口口口
口口口口
口④口口
口④④口

口口口口
口口⑤
口口⑤
口口口口

口口口口
口口口⑥
口口口⑥
口口口口
26
①⑤口② |①-②-|
口口⑧口 |③-④-|
④⑥口⑦ |⑤--⑥-⑦|
③③③③ |⑧-⑨--⑩|

口口⑩口
口口口口
口口口口
口⑨口口
27
口⑥口① |①-②③--|
口口⑨③ |④--⑤--|
⑤⑦②⑧ |⑥--⑦-⑧|
口⑩④口 |⑨-⑩---|
28
口⑥⑪① |①-②③--|
口口⑨③ |④--⑤--|
⑤⑦②⑧ |⑥--⑦-⑧|
口⑩④口 |⑨-⑩--⑪|
29
口⑥口① |①-②③--|
口口口③ |④-⑤-|
⑤口②口 |⑥-⑦-|
口口④口 |⑧-⑨-|

口口口∨
口口口口
口口口⑦
口口口口

口口口口
⑨口口口
口口口⑧
口口口口
30
口④⑩口 |①-②③--|
⑧②⑦⑤ |④--⑤--|
③⑨口口 |⑥--⑦-⑧|
①⑪⑥口 |⑨-⑩--⑪|
31
口④∨口 |①-②③--|
口②口⑤ |④-⑤-|
③口口口 |⑥-⑦-|
①口⑥口 |⑧-⑨-|

口口口⑧
口口口口
口口口口
口口⑦∧

口口口⑨
口口口口
口口口口
口口口口
32
①④⑩口 |①-②③--|
⑧②⑦⑤ |④--⑤--|
③⑨口口 |⑥--⑦-⑧|
①⑪⑥口 |⑨-⑩--⑪|
33
②口口∨ |①--②|
口②口① |--③-|
口③①口 |-④--|
③口口口 |⑤---|

口⑤⑤口
口口④④
口口口④
口⑤⑤口
34
口口口① |①---|
口②③口 |----|
口④⑤口 |---②|
口口口∧ |③④⑤-|
35
①③③① |①--②|
口口口口 |--③-|
口④④口 |-④--|
∧口②② |⑤-⑥-|

⑤口口⑤
口⑥⑥⑤
口口口口
口口口口
36
口③③口 |①--②|
∨口口口 |--③-|
口④④口 |-④--|
①口②② |⑤-⑥-|

口口口⑤
口⑥⑥⑤
口口口口
⑤口口口
37
①口口口 |①-②-|
口口口口 |③-④-|
∧∨口口 |⑤-⑥-|
口①口口 |⑦-⑧-|

口口口口
口口口口
口口∨口
口②③口

口口口口
口口口口
口口口∨
口口④⑤

⑦口口⑦
口⑧口口
口口口口
口口口⑥
38
口口④口 |①-②③|
∨口②口 |--④-|
口③⑤口 |-⑤⑥-|
①⑥①口 |⑦-⑧-|

口口口口
口⑦口⑧
口口口口
⑦口口口
39
①口④口 |①-②③|
口口②口 |--④-|
∧③⑤口 |-⑤⑥-|
口口①⑥ |⑦-⑧-|

⑦口口口
口⑧口⑦
口口口口
口口口口
40
口口④口 |①-②③|
∨口②口 |--④-|
口③⑤口 |-⑤⑥-|
①⑥①口 |⑦-⑧-|

口口口口
口⑦口⑧
口口口口
⑦口口口
41
口口口① |①-②-|
口口口口 |③-④-|
口口口∨ |⑤-⑥-|
口口口① |⑦-⑧-|

口口③口
口口∧口
口口口口
口口③②

口⑤④口
口口口口
口∨口口
口⑤口口

口口口口
⑧⑦口口
⑦⑧口口
口⑥口口
42
②⑤②∨ |①---|
③④口口 |②---|
⑤口口口 |③④--|
口口口① |⑤---|
43
②⑤②口 |①---|
③④口口 |②---|
⑤口口口 |③④--|
①①口口 |⑤---|
44
②⑤②口 |①---|
③④∨口 |②---|
⑤口口口 |③④--|
①①①口 |⑤---|
45
②⑤②口 |①---|
③④口口 |②---|
⑤口口口 |③④--|
①①口口 |⑤---|
46
口口⑥口 |①---|
口④口⑤ |②-③-|
③∨口口 |④---|
②①口口 |⑤-⑥-|
47
口①⑥口 |①---|
口④口⑤ |②-③-|
③口口口 |④---|
②口口口 |⑤-⑥-|
48
口①⑤③ |①-②-|
⑥⑦口⑧ |③-④-|
口④口② |⑤-⑥⑦-⑧|
口①①① |⑨-⑩⑪--|

口口口口
口口⑨口
口口口口
口⑩⑪口
49
③④②① |①-②-|
⑥⑦⑦⑤ |③-④-|
②⑦⑦④ |⑤-⑥-|
①⑤⑥③ |⑦-⑧-|

口口口⑧
口口口口
口口口口
⑧口口口
50
①④③⑤ |①-②③--|
⑦口口② |④---|
口⑥口④ |⑤-⑥⑦--|
口④口口 |⑧---|

口口⑧口
口口口⑧
口口⑧口
口口⑧⑧
51
①④⑦口 |①-②③--|
口口口口 |④-⑤⑥--|
②⑤⑧口 |⑦-⑧⑨--|
③⑥⑨口 |⑩--⑪--|

⑩口口∨
∧口口⑩
⑩口口∨
∧口口⑩

⑪口口口
口口口⑪
⑪口口口
口口口⑪
52
口①④口 |①-②③--|
口②③⑦ |④--⑤--|
口①④口 |⑥--⑦-⑧|
⑤⑥⑤⑥ |⑨-⑩--⑪|

口口口口
⑨⑧⑩口
口⑩口口
口口⑪口
53
②③①④ |①-②③--|
⑥口口⑤ |④--⑤--|
口口①口 |⑥-⑦⑧|
④⑤口⑥ |⑨-⑩-|

口口⑦口
口⑧口口
⑨口口<
口口口口

口口口口
口口口口
⑩口口口
口口口口
54
①④⑥⑨ |①-②③--|
⑤⑦⑤⑧ |④--⑤--|
⑩③②⑪ |⑥--⑦-⑧|
①④⑥⑨ |⑨-⑩--⑪|
55
④①③⑥ |①-②③--|
⑦⑤②口 |④--⑤--|
口①④口 |⑥--⑦-⑧|
⑥口口⑤ |⑨-⑩⑪--|

口⑨⑧口
口口⑪口
口⑩口口
口口⑪口
56
①⑤⑥⑧ |①-②③--|
⑤④口② |④--⑤--|
①⑦⑥③ |⑥--⑦-⑧|
口④口口 |⑨-⑩--⑪|

口口口口
口口口⑨
⑩口口口
口口⑪⑨
57
①⑥口④ |①--②|
④①②口 |③-④-|
⑥②④① |⑤⑥--|
②③⑥⑤ |⑦-⑧-|

口口∨口
口口⑦口
口⑦口口
口∧口口

口口口口
口口⑧口
口⑧口口
口口口口
58
④⑤③② |①-②③--|
⑤④口① |④--⑤--|
口⑧①口 |⑥--⑦-⑧|
⑥口口⑦ |⑨-⑩--⑪|

口口口口
口口口⑪
⑩口⑨口
口口口口
59
④⑤③② |①-②③--|
⑤④①口 |④--⑤--|
口⑧口口 |⑥--⑦-⑧|
⑥口⑨⑦ |⑨-⑩---|

口口口口
口口⑩口
口口口口
口口口口
60
⑦口口⑥ |①-②③--|
口①⑧口 |④--⑤--|
①口④⑤ |⑥--⑦-⑧|
②③⑤④ |⑨-⑩--⑪|

口口口口
口⑨口⑩
⑪口口口
口口口口
61
⑦口口⑥ |①-②③--|
口⑧口口 |④--⑤--|
口①④⑤ |⑥-⑦⑧|
②③⑤④ |⑨-⑩-|

口口口口
口口口口
⑨口口<
口口口口

口口口口
口口口口
⑩口口口
口口口口
62
④⑤①③ |①-②③--|
⑥口⑥② |④--⑤--|
口口②⑦ |⑥--⑦-⑧|
⑤④③① |⑨-⑩--⑪|

口口⑧口
口⑩口⑨
⑪口口口
口口口口
63
③①⑤④ |①-②③--|
②口口口 |④--⑤--|
口②口口 |⑥--⑦--|
①③④⑤ |⑧-⑨-⑩-|

口口口口
口⑥<口
口>⑥口
口口口口

⑧口口口
⑨⑦口口
⑩口⑦口
口口口口
64
⑤①③④ |①-②③--|
口⑧②⑦ |④--⑤--|
⑥②⑥口 |⑥--⑦-⑧|
④③①⑤ |⑨-⑩⑪-⑫|

口⑪⑨口
⑩口口口
口⑫口口
口口口口
65
②④③① |①--②|
口③④口 |--③-|
②口口① |-④--|
③②①④ |⑤---|

∨口口口
⑤口口⑤
⑤口口⑤
∧口口口
66
口口口口 |①---|
①口口口 |----|
①①①口 |----|
口①①口 |----|
67
口口口口 |----|
口口口口 |----|
口口口口 |----|
口口口口 |----|
最終更新:2022年04月07日 11:58