アットウィキロゴ
All Clear!!
sky_delta

BASIC

Level: 4
BPM: 164
Notes(hold): 249(27)

1
口口口口 |----|
口口口口 |----|
口口口口 |----|
口口口口 |----|
2
口口口口 |①---|
口③口口 |②---|
口口②口 |③---|
口①口口 |----|
3
口口口口 |①---|
口口③口 |②---|
口②口口 |③---|
口口①口 |----|
4
③③③③ |①---|
口口口口 |----|
②口口② |②---|
口①①口 |--③-|
5
口口口口 |----|
口口口口 |----|
口口口口 |----|
口口口口 |----|
6
口口口口 |①---|
③口口口 |②---|
口②口口 |③---|
口①口口 |----|
7
口口口口 |①---|
口口口③ |②---|
口口②口 |③---|
口口①口 |----|
8
③③③③ |①---|
口口口口 |----|
②口口② |②---|
口①①口 |--③-|
9
口口口口 |----|
口口口口 |----|
口口口口 |----|
口口口口 |----|
10
口∨口口 |①---|
口口口口 |----|
口①口口 |----|
口口口口 |----|
11
口口口口 |----|
口口口口 |----|
口①口口 |①---|
口口口口 |----|
12
口口∨口 |①---|
口口口口 |----|
口口①口 |----|
口口口口 |----|
13
口口口口 |----|
口口口口 |----|
口口①口 |①---|
口口口口 |----|
14
口口口口 |①---|
口∨口口 |----|
口口口口 |----|
口①口口 |----|
15
口口口口 |①---|
口口口口 |----|
口②②口 |②---|
口①①口 |----|
16
口口口口 |①---|
口口口口 |----|
①口口① |②---|
②口口② |----|
17
口口口口 |①---|
①<>① |----|
口口口口 |②---|
口口口口 |----|

口口口口
②口口②
口口口口
口口口口
18
口口口口 |①---|
口口口口 |----|
口口口口 |②---|
口①口< |----|

口口口口
口口口口
口口②口
口②口口
19
口口口口 |①---|
口口口口 |----|
口①口< |②---|
口口口口 |----|

口口口口
口口②口
口②口口
口口口口
20
口口口口 |①---|
口①口< |----|
口口口口 |②---|
口口口口 |----|

口口②口
口②口口
口口口口
口口口口
21
口①口< |①---|
口口口口 |----|
口口口口 |②---|
口口口口 |----|

口②口口
口口②口
口口口口
口口口口
22
①口口< |①---|
口口口口 |----|
口口口口 |②---|
口口口口 |----|

②口口口
口口②口
口口口口
口口口口
23
口口口口 |①---|
口口① |----|
口口口口 |②---|
口口口口 |----|

口口口口
口口口②
口②口口
口口口口
24
口口口口 |①---|
口口口口 |----|
①口口< |②---|
口口口口 |----|

口口口口
口口口口
②口口口
口口②口
25
口口口口 |①---|
口①①口 |----|
口口口口 |②---|
口②②口 |----|
26
口口口口 |①---|
口口口口 |②---|
①②③④ |③---|
口口口口 |④---|
27
口口口口 |①---|
④③②① |②---|
口口口口 |③---|
口口口口 |④---|
28
口①①口 |①---|
口②②口 |----|
口口口口 |②---|
口口口口 |----|
29
口口口口 |①---|
口口口口 |----|
口①①口 |②---|
口②②口 |----|
30
口口口口 |①---|
口口③② |②---|
口口口① |③---|
口口口口 |----|
31
口口口口 |①---|
②③口口 |②---|
①口口口 |③---|
口口口口 |----|
32
口①①口 |①---|
口②②口 |----|
口口口口 |②---|
口口口口 |----|
33
①口<口 |①---|
口口口口 |----|
口口口口 |②-③-|
口口口口 |----|

②口口③
口口口口
口口口口
口口口口
34
口口口口 |①---|
口口口口 |②---|
④③②① |③---|
口口口口 |④---|
35
口口口口 |①---|
①②③④ |②---|
口口口口 |③---|
口口口口 |④---|
36
口①①口 |①---|
口口口口 |----|
口②②口 |②---|
口口口口 |----|
37
口口口口 |①---|
①口口① |----|
口口口口 |②---|
口②②口 |----|
38
口口口口 |①---|
口口口口 |----|
∨口口∨ |----|
①口口① |②---|

口口口口
口口口口
口口口口
②口口②
39
口口口口 |①---|
口③④口 |②---|
口①②口 |③---|
口口口口 |④---|
40
①口口① |①---|
②口口② |----|
口口口口 |②---|
口口口口 |----|
41
口∨∨口 |①---|
口③③口 |----|
①口口① |②---|
②口口② |--③-|
42
口口口口 |----|
口口口口 |----|
口口口口 |----|
口口口口 |----|
43
口口口口 |----|
口①①口 |----|
口口口口 |①---|
口口口口 |----|
44
③③③③ |①---|
口口口口 |----|
②口口② |②---|
口①①口 |--③-|
45
口口口口 |----|
口口口口 |----|
口口口口 |----|
口口口口 |----|
46
口口口口 |①---|
①口③口 |②---|
口②口口 |③---|
口口口口 |----|
47
口口口口 |①---|
口③口① |②---|
口口②口 |③---|
口口口口 |----|
48
口口>③ |①---|
口口口口 |----|
②口口② |②---|
口①①口 |--③-|
49
①口口① |----|
口口口口 |----|
口口口口 |----|
口口口口 |①---|
50
口口口口 |①---|
口②①口 |②---|
口③④口 |③---|
口口口口 |④---|
51
口口口口 |①---|
口②①口 |②---|
口③④口 |③---|
口口口口 |④---|
52
口口口口 |①---|
口②①口 |②---|
口③④口 |③---|
口口口口 |④---|
53
口口口口 |①---|
口②①口 |②---|
口③④口 |③---|
口口口口 |④---|
54
口口口口 |①---|
口口口① |--②-|
口口口口 |----|
口②②口 |----|
55
口口口口 |①---|
①口口口 |--②-|
口口口口 |----|
口②②口 |----|
56
口口口口 |①---|
口>①口 |----|
口①<口 |----|
口口口口 |----|
57
口口口口 |①---|
口口①口 |----|
口①口口 |----|
口口口口 |----|
58
口口口∨ |①---|
口口口口 |----|
口口口口 |②---|
口口口① |③---|

口口口口
口③③口
口③③口
②口口②
59
口④口口 |①---|
③口口口 |②---|
②口口口 |③---|
口①口口 |④---|
60
口口①口 |①---|
口口口② |②---|
口口口③ |③---|
口口④口 |④---|
61
口口口口 |①---|
口①①口 |----|
口②②口 |②---|
口口口口 |----|
62
口口口∨ |①---|
口口口① |--②-|
口口口口 |----|
口口口口 |----|

口口②口
口口口②
口口口口
口口口口
63
∨口口口 |①---|
①口口口 |--②-|
口口口口 |----|
口口口口 |----|

口②口口
②口口口
口口口口
口口口口
64
②口口① |①---|
②口口① |----|
口口口口 |②---|
口口口口 |----|
65
口口①口 |①---|
口①口口 |----|
口>②口 |②---|
口②<口 |③---|

口口口口
口口口口
口口③口
口③口口
66
口口口口 |①---|
①②④③ |②---|
口口口口 |③---|
口口口口 |④---|
67
口口口口 |①---|
口口口口 |②---|
①②④③ |③---|
口口口口 |④---|
68
口口口口 |①---|
口口口口 |②---|
口②④口 |③---|
口①③口 |④---|
69
∨口口∨ |①---|
①口口① |----|
口口口口 |----|
口口口口 |②---|

口口口口
②口口②
口口口口
口口口口
70
口口口口 |①---|
口③③口 |②---|
口口口② |③---|
口口①口 |----|
71
口口口口 |①---|
口③③口 |②---|
②口口口 |③---|
口①口口 |----|
72
③③③③ |①---|
口口口口 |----|
②口口② |②---|
口①①口 |--③-|
73
口口口口 |----|
口口口口 |----|
口口口口 |----|
口口口口 |----|
最終更新:2022年04月07日 12:00