アットウィキロゴ
All Clear!!
sky_delta

ADVANCED

Level: 8
BPM: 164
Notes(hold): 381(43)

1
口口口口 |----|
口口口口 |----|
口口口口 |----|
口口口口 |----|
2
④口口口 |①---|
口口③口 |②---|
②⑤口口 |③--④|
口口口① |--⑤-|
3
口口①② |--①-|
④口口口 |②---|
口口③口 |③--④|
⑤口口口 |--⑤-|
4
口④⑥⑥ |--①-|
口②口③ |②-③-|
口口⑤① |④--⑤|
口口口口 |--⑥-|
5
①口口口 |--①-|
①口口口 |----|
口口口口 |----|
口口口口 |----|
6
④口口口 |①---|
口口③口 |②---|
②⑤③② |③--④|
①口口① |--⑤-|
7
口口①② |--①-|
④口口口 |②---|
口口③口 |③--④|
⑤⑤③口 |--⑤-|
8
口④⑥⑥ |--①-|
口②口③ |②-③-|
口口⑤① |④--⑤|
口口口口 |--⑥-|
9
①口口口 |--①-|
①口口口 |----|
口口口口 |----|
口口口口 |----|
10
口口口口 |①---|
口口① |----|
口口口口 |----|
口口口口 |----|
11
口②口口 |①---|
口口口③ |----|
口①口口 |②---|
口口口口 |③---|
12
口口口口 |①---|
口②口口 |----|
口口① |②---|
口口口口 |----|
13
口②口口 |①---|
口口口口 |----|
口口口③ |②---|
口①口口 |③---|
14
口口口∨ |①---|
口口口口 |----|
口②口口 |②---|
口口口① |----|
15
口②口口 |①---|
口口口口 |----|
口口口口 |②---|
口①口③ |③---|
16
口口口口 |①---|
口口口口 |②---|
口①<口 |③---|
口口口口 |④---|

口口口口
口口口口
口②口口
口>③口

口口口口
口口口口
口口口口
口口④口
17
口口口口 |①---|
①①< |----|
口口口口 |②---|
口口口口 |----|

口口口口
口②②口
口口口口
口口口口
18
③口口口 |①---|
②口口口 |②---|
①口∨口 |③---|
口口①口 |④---|

口口口口
口口口口
口口口口
口口④口
19
口口口口 |①---|
口口口口 |②---|
口∨口② |③---|
口①口口 |④---|

口口口口
口口>③
口口口口
口③口口

口口口口
口口口④
口口口口
口口口口
20
①<口口 |①---|
口口口口 |②---|
口口口口 |③---|
口口口口 |④---|

②口>③
口口②口
口口口口
口口口口

口口口④
口④口口
口口口口
口口口口
21
口口口口 |①---|
口口口口 |②---|
口①<口 |③---|
口口口口 |④---|

口口口口
口口口∨
口②口③
口口口②

口口口口
口④口口
口口口④
口口口口
22
∨口口口 |①---|
①口④口 |②---|
口口③口 |③---|
口口②口 |④---|
23
口口口① |①---|
①②口∧ |②---|
口口口口 |③---|
口口口口 |④---|

③<口③
口口④口
口口口口
口口口口
24
①④口口 |①---|
②③口口 |②---|
口>①口 |③---|
口口口口 |④---|
25
①口口口 |①---|
口口口口 |--②-|
⑤口①④ |③-④-|
口③②口 |⑤---|
26
③①①③ |①---|
口口口口 |②---|
口②②口 |③---|
口④④口 |④---|
27
口口口口 |①---|
①<口口 |--②-|
口口口口 |----|
口口口口 |③-④-|

口口口口
②口口∨
口口③④
口口口②
28
口口口口 |----|
∨口口口 |①-②-|
②①口① |----|
口口口口 |③-④-|

口口口口
口口口口
③口口∨
口口③④
29
口口口口 |--①-|
③②②③ |----|
口口口口 |②---|
口①口① |③---|
30
①口③口 |①---|
口口口口 |②---|
口②口口 |③---|
口④④口 |④---|
31
口②口口 |①---|
口口口口 |②---|
①口③口 |③---|
口④④口 |④---|
32
①口口① |①---|
口②②口 |②---|
③口口③ |③---|
口④④口 |④---|
33
③口口③ |①---|
口②①口 |--②-|
口①②口 |--③-|
口口口口 |----|
34
③①①③ |①---|
口口口口 |②---|
口②②口 |③---|
口④④口 |④---|
35
口口口口 |①---|
口口>① |--②-|
口口口口 |----|
口口口口 |③-④-|

口口口口
∨口口②
④③口口
②口口口
36
口口口口 |----|
口口口∨ |①-②-|
①口①② |----|
口口口口 |③-④-|

④③口口
∧口口口
口口口③
口口口口
37
①口①口 |--①-|
③②②③ |----|
口口口口 |②---|
口口口口 |③---|
38
①<>① |①---|
口口口口 |----|
口口口口 |②---|
口口口口 |③---|

②口口②
口③③口
口③③口
口口口口
39
口口②口 |①---|
口口口口 |②---|
口③口① |③---|
口④④口 |④---|
40
①口口① |①---|
口②②口 |②---|
③口口③ |③---|
口④④口 |④---|
41
①口口① |①---|
口口口口 |--②-|
口口口口 |----|
②口口② |--③-|

口口口③
口口口∧
口口口口
口口口口
42
口①口口 |①---|
口②口口 |②---|
口③口口 |③---|
口口口口 |----|
43
口①口③ |①---|
口②口口 |②---|
口③口口 |③---|
口口口④ |--④-|
44
⑥⑥④口 |--①-|
③口②口 |②-③-|
①⑤口口 |④--⑤|
口口口口 |--⑥-|
45
口口口① |--①-|
口口口① |----|
口口口口 |----|
口口口口 |----|
46
④④口口 |①---|
口口③③ |②---|
②②口口 |③---|
口口①① |④---|
47
口口①① |①---|
②②口口 |②---|
口口③③ |③---|
④④口口 |④---|
48
②口∨① |①---|
②口⑤① |②---|
口口⑤口 |③--④|
④口∧③ |--⑤-|
49
口口口口 |----|
口①①口 |----|
口①①口 |----|
口口口口 |①---|
50
①口口② |①---|
口口口口 |②---|
口口口口 |③---|
④口口③ |④---|
51
①口口② |①---|
口口口口 |②---|
口口口口 |③---|
④口口③ |④---|
52
①口口② |①---|
口口口口 |②---|
口口口口 |③---|
④口口③ |④---|
53
①口口② |①---|
口口口口 |②---|
口口口口 |③---|
④口口③ |④---|
54
口口口口 |①--②|
口口口① |--③-|
口口②口 |----|
口③③口 |----|
55
口口口① |①--②|
口口②口 |--③-|
口③③口 |----|
口口口口 |----|
56
∨∨口口 |①---|
①①口口 |----|
口口口口 |----|
口口口口 |----|
57
口口口口 |①---|
①①①① |----|
口口口口 |----|
口口口口 |----|
58
③①①③ |①---|
口口口口 |②---|
口②②口 |③---|
口④④口 |④---|
59
口口口口 |①---|
①<口口 |--②-|
口口口口 |----|
口口口口 |③-④-|

口口口口
②口口∨
口口③④
口口口②
60
口口口口 |----|
∨口口口 |①-②-|
②①口① |----|
口口口口 |③-④-|

口口③④
口口口∧
③口口口
口口口口
61
口①口① |--①-|
③②②③ |----|
口口口口 |②---|
口口口口 |③---|
62
③口③口 |①--②|
口口口口 |--③-|
②口①口 |----|
②口①口 |④---|

口口口口
口口口口
口④④口
口口口口
63
口①口② |①--②|
口①口② |--③-|
口口口口 |----|
口③口③ |④---|

口④④口
口口口口
口口口口
口口口口
64
②口口① |①-②-|
④口口③ |③-④-|
⑥口口⑤ |⑤-⑥-|
⑧口口⑦ |⑦-⑧-|
65
口口口口 |①---|
口口∨口 |--②-|
口口①口 |----|
口口口口 |--③-|

口口口口
口口口∨
口口②③
口②口口
66
口口③口 |----|
②<④口 |①-②-|
口口口① |③---|
口口口口 |④---|
67
口口∨口 |①---|
④口⑤口 |②---|
口口①④ |③---|
口口②③ |④-⑤-|
68
口∨口口 |----|
口②①口 |①-②-|
口①口口 |----|
口口口口 |③-④-|

口口口④
口③口∧
口口③口
口口口口
69
口①口④ |①---|
②口口口 |②---|
③口口口 |③---|
口④口口 |④---|
70
④口口口 |①---|
口口③口 |②---|
②⑤③② |③--④|
①口口① |--⑤-|
71
口口①② |--①-|
④口口口 |②---|
口口③口 |③--④|
⑤⑤③口 |--⑤-|
72
口④⑥⑥ |--①-|
口②口③ |②-③-|
口口⑤① |④--⑤|
口口口口 |--⑥-|
73
①口口口 |--①-|
①口口口 |----|
口口口口 |----|
口口口口 |----|
最終更新:2022年04月07日 12:00