All Clear!!
sky_delta
EXTREME
Level: 10.4
BPM: 164
Notes(
hold): 715(46)
 
1
口口口口 |----|
口口口口 |----|
口口口口 |----|
口口口口 |----|
2
口口②口 |①---|
④口口口 |②---|
口③⑥① |③--④|
①②③⑤ |⑤-⑥-|
3
口⑤口口 |①-②-|
口③口④ |③---|
②口⑦口 |④--⑤|
①③④⑥ |⑥-⑦-|
4
⑦⑦口口 |①-②-|
⑥③⑤⑥ |③-④-|
②④⑦⑦ |⑤--⑥|
①③⑤口 |--⑦-|
5
口口①口 |--①-|
口口口口 |----|
口口口口 |----|
口②②口 |②---|
6
口②口口 |①---|
口口④② |②---|
④③①⑤ |③--④|
①口⑤③ |--⑤-|
7
⑤①②④ |--①-|
①④⑤② |②---|
口口③口 |③--④|
③口口口 |--⑤-|
8
口②④⑥ |--①-|
口口⑥口 |②-③-|
①③口⑥ |④--⑤|
⑤⑤口口 |--⑥-|
9
①<口口 |--①-|
口口口口 |----|
①口口 |----|
口口口口 |----|
10
①②⑤口 |①-②-|
口口① |③④--|
口①④口 |⑤--⑥|
⑥③口口 |--⑦-|
⑦口口口
口口口口
口口口口
口口口口
11
⑦②⑤口 |①-②-|
口口口⑦ |③④--|
口①④口 |⑤--⑥|
⑥③口口 |--⑦-|
12
⑦口⑤口 |①-②-|
口②口口 |③④--|
口口① |⑤--⑥|
⑥③④口 |--⑦-|
13
⑦口⑤口 |①-②-|
口②口① |③④--|
口口口⑦ |⑤--⑥|
⑥③④口 |--⑦-|
14
口②⑦∨ |①-②-|
⑤口口口 |③④--|
口口④口 |⑤--⑥|
口③⑥① |--⑦-|
15
口口口口 |①---|
口口口口 |②---|
①<口口 |③---|
口口口口 |④---|
③<口口
口口口口
②口口口
口②口口
④口口口
口④口口
口口口口
口口口④
16
口口口口 |①-②-|
口口口② |③④--|
口口口口 |⑤--⑥|
①<口口 |--⑦-|
口口口口
口口口口
⑥④口∨
③口③⑤
口口⑦口
口口口口
口口口口
口口口⑦
17
口口口口 |①---|
①<口口 |②③④⑤|
口口口口 |⑥⑦⑧⑨|
口口口口 |⑩⑪⑫⑬|
⑤⑦口⑥
②口⑩④
⑨③⑧⑫
⑬⑪②口
18
③口口口 |①---|
②②口∨ |②---|
③口口口 |③--④|
口④④① |--⑤-|
口口⑤口
口口口口
口口⑤口
口口口⑤
19
口口口③ |①-②-|
∨②②③ |③---|
口口口口 |④--⑤|
①口口口 |--⑥-|
口口口口
⑤口口口
⑤>口④
④④④口
口⑥⑥口
口口口口
口口口⑥
口口口口
20
口口口① |①---|
口①①∧ |②---|
口口口口 |③--④|
口口口口 |--⑤-|
③口口②
∧口口③
口④④口
口②②③
⑤⑤⑤口
口口口口
口口口口
口口口口
21
口口口口 |①-②-|
口口②口 |③---|
①口口口 |④--⑤|
∧口②口 |--⑥-|
④口口口
∧③口⑤
③④④口
口③口⑤
⑥⑥⑥口
口口口口
口口口口
口口口口
22
口口口① |①-②-|
口④⑤口 |③-④-|
口③⑥∧ |⑤-⑥-|
口②⑦口 |⑦-⑧-|
口口口口
口口口口
口口口口
口⑧口口
23
口口口① |①-②-|
∨③④口 |③-④-|
口②口口 |⑤-⑥-|
①口口口 |⑦-⑧-|
口口口口
口口口⑤
口口⑥口
⑤⑧⑦∧
24
口∨②口 |①-②-|
口口③① |③-④-|
口①④⑦ |⑤-⑥-|
口口⑤⑥ |⑦-⑧-|
口口口口
口口口⑧
口口口口
口口口口
25
口口>① |①---|
口④口口 |--②-|
口①③口 |③-④-|
口②口口 |⑤---|
⑤⑤口⑤
口口口口
口口口口
口口口口
26
⑥口①⑦ |①-②③|
③⑧①⑤ |-④⑤-|
⑥②④⑦ |⑥--⑦|
口⑧口口 |--⑧-|
27
口③①口 |①-②③|
②口口④ |--④-|
⑤①⑥口 |--⑤-|
口⑤④⑥ |⑥-⑦-|
⑦口<口
口⑦口口
口口口口
口口口口
28
②口口① |--①-|
③口<④ |②-③-|
口③口② |--④-|
口口口口 |⑤-⑥-|
口口口口
⑤口口口
⑥口<口
口⑥口⑤
29
⑧④口口 |--①-|
口⑦③⑥ |--②③|
①②⑤① |④-⑤⑥|
口口口口 |-⑦⑧-|
30
口口口① |①-②③|
⑧⑨③口 |-④⑤-|
④②⑦⑥ |--⑥⑦|
口⑤口口 |⑧⑨⑩⑪|
口口⑪⑩
口口口口
口口口口
口口口口
31
①口⑧口 |①-②③|
口⑦③口 |-④⑤-|
④②口口 |--⑥-|
口⑤口⑥ |⑦⑧--|
32
①①口② |①--②|
口⑥⑤③ |--③-|
④①②② |--④-|
④④③③ |--⑤⑥|
33
①<口口 |①--②|
口口口口 |--③-|
口口口口 |--④-|
口口口口 |----|
②口口∨
口口口②
口口口口
口口口口
口口口④
④口口③
口口③④
口③口口
34
⑦①口⑥ |①-②③|
⑤①⑧③ |-④⑤-|
⑦④②⑥ |⑥--⑦|
口口⑧口 |--⑧-|
35
口①③口 |①-②③|
④口口② |--④-|
口⑥①⑤ |--⑤-|
⑥④⑤口 |⑥-⑦-|
口>口⑦
口口⑦口
口口口口
口口口口
36
①口口② |--①-|
②>口③ |②-③-|
③口口口 |----|
口口口口 |④-⑤-|
口④口口
口口口④
口>口⑤
口口⑤口
37
口口②⑦ |--①-|
⑤③⑧口 |--②③|
①⑥④① |④-⑤⑥|
口口口口 |-⑦⑧-|
38
⑥口⑤口 |①-②③|
⑦④口⑨ |-④⑤-|
⑧⑧⑩③ |--⑥⑦|
①口②口 |⑧-⑨⑩|
39
口⑧②口 |①-②③|
口③⑦口 |-④⑤-|
口口口④ |--⑥-|
⑥①⑤口 |⑦⑧--|
40
②口①① |①--②|
③口口口 |--③-|
②②①④ |--④-|
③③④④ |----|
41
①①口① |①---|
口口口口 |--②-|
口口口口 |----|
②口②② |--③-|
口口口③
口口口∧
口口口口
口口口口
42
口口②口 |①---|
④口口口 |②---|
口③⑤① |③--④|
口口口口 |--⑤-|
43
口④口③ |--①-|
口②口③ |②---|
①口⑤口 |③--④|
口口口口 |--⑤-|
44
⑥⑥口口 |--①-|
⑤②④⑤ |②-③-|
①③⑥⑥ |④--⑤|
口口口口 |--⑥-|
45
口口口① |--①-|
⑥⑤④③ |----|
口②口口 |②---|
口口②口 |③④⑤⑥|
46
口②口口 |①---|
口口口④ |②---|
①⑥③口 |③--④|
⑤③②① |⑤-⑥-|
47
口口⑤口 |①-②-|
④口③口 |③---|
口⑦口② |④--⑤|
⑥④③① |⑥-⑦-|
48
口口口口 |①-②-|
⑥⑤③⑥ |③-④-|
口口④② |⑤--⑥|
口⑤③① |--⑦-|
口口⑦⑦
口口口口
⑦⑦口口
口口∧∧
49
口口①① |----|
口口口口 |----|
①口口口 |----|
口①口口 |①---|
50
①⑦口口 |①-②③|
⑦③口④ |--④-|
⑤口②⑥ |⑤--⑥|
口⑤⑥① |--⑦-|
51
②⑥①③ |①--②|
⑤①口口 |--③-|
口⑤口④ |--④-|
②⑥④③ |⑤-⑥-|
52
口口③口 |--①-|
④①④② |②-③-|
①⑤②⑤ |--④-|
口口③口 |⑤-⑥-|
∨口口∨
口口口口
口口口口
⑥口口⑥
53
口口口口 |----|
⑥④口⑤ |①-②③|
口口③口 |④--⑤|
①②口① |--⑥-|
54
①口口口 |①-②③|
口⑥③⑧ |--④-|
⑤②⑦口 |----|
①④④口 |⑤⑥⑦⑧|
55
口口口① |①-②③|
⑤⑦③口 |--④-|
口②⑥口 |--⑤-|
口④④① |⑥⑦--|
56
⑧④⑪⑤ |①②③④|
⑩口口① |⑤⑥⑦⑧|
②口口⑨ |⑨⑩⑪⑫|
⑥⑫③⑦ |⑬⑭⑮⑯|
口口口口
口⑯口⑬
⑭口⑮口
口口口口
57
口②口① |①---|
口口③口 |②③④-|
口④口口 |-⑤⑥-|
口口口∧ |⑦-⑧-|
口口⑧⑤
口口口⑧
⑦口口⑥
口⑦⑥口
58
①⑪⑫⑤ |①②③④|
⑩②⑥⑬ |⑤⑥⑦⑧|
⑨⑦③口 |⑨⑩⑪⑫|
⑧⑬⑬④ |⑬-⑭⑮|
⑭口口口
口⑮口口
口口口口
口口口口
59
口⑤口③ |①-②③|
④口②口 |-④⑤-|
⑥⑦①口 |--⑥-|
口口⑥⑦ |⑦-⑧-|
⑧口<口
口⑧口口
口口口口
口口口口
60
②口口① |--①-|
③口<② |②-③-|
口口口③ |----|
口口口口 |④-⑤-|
口口口口
④口口口
口口④口
口口口口
∨口⑤口
口口口口
⑤口口口
口口口口
61
口②口⑨ |--①-|
⑧⑩③口 |--②③|
①④⑪⑦ |④⑤⑥⑦|
⑥口⑤① |⑧⑨⑩⑪|
62
①③②④ |①--②|
口口⑤② |--③-|
③⑥口口 |--④⑤|
③①口② |⑥⑦⑧⑨|
口口口口
口口口⑨
口口⑧口
口⑦口口
63
②⑥①③ |①--②|
④②口⑤ |--③-|
口口口③ |--④⑤|
②口③① |⑥⑦⑧⑨|
口口⑦口
口口口口
口⑧⑨口
口口口口
64
④⑥⑦③ |①-②-|
⑤②①⑧ |③-④-|
口⑩⑨口 |⑤⑥⑦⑧|
③①②④ |⑨⑩⑪⑫|
口口口口
口⑪⑫口
口口口口
口口口口
65
口口口∨ |①---|
口口口口 |--②-|
口口口① |----|
口口口口 |③-④-|
口口口口
口∨口口
口口口②
口②口口
口口口口
口口>④
口口口口
口③③③
66
③①>⑤ |①-②-|
④口⑧③ |③④⑤-|
⑤②⑥口 |⑥--⑦|
⑦口口口 |--⑧-|
67
③①口口 |①-②-|
④口口口 |③④⑤-|
⑤②⑥口 |⑥--⑦|
⑦口口口 |--⑧-|
口⑧口⑧
口∧口口
口口口口
口口口口
68
⑤③口⑦ |①-②-|
∧⑥③① |③④⑤-|
口口④口 |⑥--⑦|
口口⑤② |⑧-⑨-|
⑧口⑨口
口口∧⑧
口口口口
口口口口
69
⑦①⑦口 |①-②-|
③⑧口口 |③④⑤-|
④②口口 |⑥---|
⑤口⑥口 |⑦⑧⑨⑩|
口口口口
口口口口
口口⑨口
口口口⑩
70
⑤②④口 |①---|
口④⑤② |②---|
③口口① |③--④|
口①③口 |--⑤-|
71
口口③口 |--①-|
③④口口 |②---|
⑤②④① |③--④|
口①⑤② |--⑤-|
72
②⑦口① |--①-|
口④③⑤ |②-③-|
⑦③④⑤ |④-⑤⑥|
①⑥⑥② |--⑦-|
73
①口口① |--①-|
口口口口 |----|
口口口口 |----|
口口口口 |----|
最終更新:2022年04月07日 12:00