アットウィキロゴ
Din Don Dan
Ryu☆ feat.Mayumi Morinaga

BASIC

Level: 3
BPM: 140
Notes: 269

1
口口口口 |----|
口口口口 |----|
口口口口 |----|
口口口口 |----|
2
①①口口 |①---|
②②口口 |----|
口口口口 |②---|
口口口口 |----|
3
口口口口 |①---|
口口口口 |----|
①①口口 |----|
口口口口 |----|
4
口口①① |①---|
口口②② |----|
口口口口 |②---|
口口口口 |----|
5
口口口口 |①---|
口口口口 |----|
口口①① |----|
口口口口 |----|
6
①①口口 |①---|
②②口口 |----|
口口口口 |②---|
口口口口 |----|
7
口口口口 |①---|
口口口口 |----|
①①口口 |----|
口口口口 |----|
8
口口①① |①---|
口口②② |----|
口口口口 |②---|
口口口口 |----|
9
口口口口 |①---|
口口口口 |----|
口口①① |②---|
口②②口 |----|
10
口口口② |①---|
口①①口 |----|
口①①口 |----|
口口口口 |②---|
11
③③口口 |①---|
口①②口 |②---|
口①②口 |③---|
口口④④ |④---|
12
③③口口 |①---|
口口口口 |②---|
口②口口 |③---|
口①口口 |----|
13
口口③③ |①---|
口②①口 |②---|
口②①口 |③---|
④④口口 |④---|
14
②②口口 |①---|
口口口口 |----|
口口口口 |②---|
口口①① |----|
15
③③口口 |①---|
口①②口 |②---|
口①②口 |③---|
口口④④ |④---|
16
③③口口 |①---|
口口口口 |②---|
口②口口 |③---|
口①口口 |----|
17
口口③③ |①---|
口②①口 |②---|
口②①口 |③---|
④④口口 |④---|
18
②②口口 |①---|
口口③口 |----|
口④口口 |②---|
口口①① |③-④-|
19
口口口口 |①---|
②口口③ |②---|
口口口口 |③---|
④口①口 |④---|
20
口口口口 |①---|
口①①口 |②---|
口②②口 |③---|
口③③口 |----|
21
口口口口 |①---|
②口口③ |②---|
口口口口 |③---|
④口口① |④---|
22
口口口口 |①---|
口①①口 |----|
口口口口
口口口口

口口口口
口口③口
②④口② |②---|
口口口口 |③-④-|
23
口口口口 |①---|
②口口③ |②---|
口口口口 |③---|
④口①口 |④---|
24
③口口③ |①---|
口②②口 |②---|
口①①口 |③---|
口口口口 |----|
25
口口口口 |①---|
②口口③ |②---|
口口口口 |③---|
④口口① |④---|
26
口口口口 |①---|
口①①口 |----|
②口口② |②---|
口口口口 |----|
27
口口①口 |①---|
口②口口 |②---|
③口口口 |③---|
口口口口 |----|
28
口①口口 |----|
口口②口 |----|
口口口口 |①---|
口口口口 |②---|
29
口口口口 |①---|
口口口口 |----|
口口口① |----|
口口口口 |----|
30
口口口口 |①---|
口口口口 |----|
口口口口 |②---|
口①②口 |----|
31
口口口口 |①---|
口口①口 |②---|
口②口口 |③---|
③口口口 |----|
32
口口口口 |----|
口①口口 |----|
口口②口 |①---|
口口口口 |②---|
33
口口口口 |①---|
口口口口 |----|
口口口口 |----|
口口口① |----|
34
口口口口 |①---|
口①①口 |----|
口口口口 |----|
口口口口 |----|
35
①②③④ |①---|
口口口口 |②---|
口口口口 |③---|
口口口口 |④---|
36
口口口口 |①---|
②②口口 |----|
①①口口 |②---|
口口口口 |----|
37
④③②① |①---|
口口口口 |②---|
口口口口 |③---|
口口口口 |④---|
38
口口口口 |①---|
口口②② |----|
口口①① |②---|
口口口口 |----|
39
①②③④ |①---|
口口口口 |②---|
口口口口 |③---|
口口口口 |④---|
40
口口口口 |①---|
②②口口 |----|
①①口口 |②---|
口口口口 |----|
41
④③②① |①---|
口口口口 |②---|
口口口口 |③---|
口口口口 |④---|
42
口口口口 |①---|
口口②② |----|
口口①① |②---|
口口口口 |----|
43
口口口④ |①---|
③口口③ |②---|
②口口② |③---|
①口口① |④---|
44
③③口口 |①---|
口①②口 |②---|
口①②口 |③---|
口口④④ |④---|
45
③③口口 |①---|
口口口口 |②---|
口②口口 |③---|
口①口口 |----|
46
口口③③ |①---|
口②①口 |②---|
口②①口 |③---|
④④口口 |④---|
47
②②口口 |①---|
口口口口 |----|
口口口口 |②---|
口口①① |----|
48
③③口口 |①---|
口①②口 |②---|
口①②口 |③---|
口口④④ |④---|
49
③③口口 |①---|
口口口口 |②---|
口②口口 |③---|
口①口口 |----|
50
口口③③ |①---|
口②①口 |②---|
口②①口 |③---|
④④口口 |④---|
51
②②口③ |①---|
口口口口 |----|
口口口口 |②---|
口口①① |③---|
52
③③口口 |①---|
口①②口 |②---|
口①②口 |③---|
口口④④ |④---|
53
口③口口 |①---|
口口口口 |②---|
口②口口 |③---|
口①口口 |----|
54
口口③③ |①---|
口②①口 |②---|
口②①口 |③---|
④④口口 |④---|
55
②口口口 |①---|
口口口口 |----|
口口口口 |②---|
口口口① |----|
56
③③口口 |①---|
口①②口 |②---|
口①②口 |③---|
口口④④ |④---|
57
口③口口 |①---|
口口口口 |②---|
口②口口 |③---|
口①口口 |----|
58
口口③③ |①---|
口②①口 |②---|
口②①口 |③---|
④④口口 |④---|
59
②口口口 |①---|
口口口口 |----|
口口口口 |②---|
口口口① |----|
60
口口口口 |①---|
口①①口 |----|
口①①口 |----|
口口口口 |----|

accuracy: 100%
最終更新:2022年04月09日 16:45