アットウィキロゴ
Din Don Dan
Ryu☆ feat.Mayumi Morinaga

ADVANCED

Level: 7
BPM: 140
Notes: 459

1
口口口口 |----|
口口口口 |----|
口口口口 |----|
口口口口 |----|
2
①口口④ |①--②|
口②⑤口 |--③-|
口⑥③口 |④--⑤|
口口口口 |--⑥-|
3
口口口④ |①--②|
⑤③口口 |--③-|
口口②⑥ |----|
⑦口口① |④⑤⑥⑦|
4
口④口口 |①--②|
口口⑤① |--③-|
口口②⑥ |④--⑤|
口③口口 |--⑥-|
5
口⑤①口 |①--②|
口②口口 |--③-|
③口口口 |--④-|
⑥口④口 |⑤-⑥-|
6
①口口④ |①--②|
口②⑤口 |--③-|
口⑥③口 |④--⑤|
口口口口 |--⑥-|
7
口口口⑥ |①--②|
⑦③④口 |--③-|
口⑤②⑧ |④--⑤|
⑨口口① |⑥⑦⑧⑨|
8
口④口口 |①--②|
口口⑤① |--③-|
口口②⑥ |④--⑤|
口③口口 |--⑥-|
9
口⑥①口 |①--②|
口②⑤口 |--③-|
③口口④ |④--⑤|
口口口口 |--⑥-|
10
口口口口 |①---|
口口口口 |----|
口口口口
①①①①

②口口口
口口口口
口口口口 |----|
口口口③ |②-③-|
11
⑤⑤②② |①---|
口③②② |②---|
①①④口 |③-④-|
①①口口 |⑤---|
12
④口口⑤ |①-②-|
口口①口 |③-④-|
口②口口 |⑤---|
口口口③ |----|
13
②②⑤⑤ |①---|
②②③口 |②---|
口④①① |③-④-|
口口①① |⑤---|
14
①①口口 |--①-|
口口口口 |--②-|
口口口口
口口②口

④口口口
口③③口
口口口口 |③---|
口口口⑤ |④-⑤-|
15
⑤⑤②② |①---|
口③②② |②---|
①①④口 |③-④-|
①①口口 |⑤---|
16
④口⑦⑤ |①-②-|
口口①口 |③-④-|
口②口口 |⑤-⑥-|
⑥⑧口③ |⑦-⑧-|
17
②②⑤⑤ |①---|
②②③口 |②---|
口④①① |③-④-|
口口①① |⑤---|
18
①①口口 |--①-|
口口口口 |--②-|
口口口口
口口②口

④口口口
⑤③③口
口口口口 |③---|
口口口口 |④-⑤-|
19
④④②② |①---|
口口口口 |②---|
①口口口 |③-④-|
⑤口口③ |⑤---|
20
⑤口口⑤ |①-②-|
口④①口 |③-④-|
口②③口 |⑤---|
口口口口 |----|
21
②②④④ |①---|
口口口口 |②---|
口口口① |③-④-|
③口口⑤ |⑤---|
22
口口口口 |--①-|
①口口① |--②-|
②口口②
口口口口

④③③口
⑤口口口
口口口口 |③---|
口口口口 |④-⑤-|
23
⑤⑤②② |①---|
口③口口 |②-③-|
①口口口 |④-⑤-|
⑥口口④ |⑥---|
24
口口口⑤ |①-②-|
口④①口 |③-④-|
⑦②③口 |⑤-⑥-|
口口口⑥ |⑦---|
25
②②④④ |①---|
口口口口 |②---|
口口口① |③-④-|
③口口⑤ |⑤---|
26
⑤⑤口口 |--①-|
①口口④ |②-③-|
口②③口 |④---|
口口口口 |⑤---|
27
口口口口 |①-②-|
口口②口 |③-④-|
口③口口
④口口①

⑤⑦口⑥
口口⑧口
口⑨口口 |⑤-⑥-|
口口⑩口 |⑦⑧⑨⑩|
28
②⑤口③ |①---|
口口口口 |--②-|
口④⑥口 |③-④-|
①口口口 |⑤-⑥-|
29
口口①⑤ |①---|
口口口口 |②---|
口口⑥口 |③-④-|
④口③② |⑤-⑥-|
30
②①口口 |①---|
①②④口 |②---|
口⑤口口 |③-④-|
口口⑥③ |⑤-⑥-|
31
口口口口 |①-②-|
口②口口 |③-④-|
口口③口
①口口④

⑥口⑦⑤
口⑧口口
口口⑨口 |⑤-⑥-|
口⑩口口 |⑦⑧⑨⑩|
32
口口口② |①---|
④③口口 |--②-|
③④口口 |③---|
口口口① |④---|
33
①口口① |①---|
口口口④ |----|
口口③口 |--②-|
口②口口 |③-④-|
34
口①①口 |①---|
口④⑤口 |②---|
口④⑤口 |③---|
②口口③ |④-⑤-|
35
①②③⑥ |①---|
口口⑤④ |②---|
口口口口 |③-④-|
口口口口 |⑤-⑥-|
36
口口口口 |①--②|
口⑤④口 |--③-|
①②③口 |----|
①②③口 |④-⑤-|
37
⑥③②① |①---|
④⑤口口 |②---|
口口口口 |③-④-|
口口口口 |⑤-⑥-|
38
口口口口 |①--②|
口④⑤口 |--③-|
口③②① |----|
口③②① |④-⑤-|
39
①②③⑥ |①---|
口口⑤④ |②---|
口口口口 |③-④-|
口口口口 |⑤-⑥-|
40
口口口口 |①--②|
口⑤④口 |--③-|
①②③口 |----|
①②③口 |④-⑤-|
41
⑥③②① |①---|
④⑤口口 |②---|
口口口口 |③-④-|
口口口口 |⑤-⑥-|
42
口口口口 |①---|
口口口口 |--②-|
②口口① |----|
②④③① |③-④-|
43
①口口① |①---|
②口口② |②---|
口口口口
口口口口

④③③口
口③③口
口口口口 |③---|
口口口⑤ |④-⑤-|
44
⑤⑤②② |①---|
口③②② |②---|
①①④口 |③-④-|
①①口口 |⑤---|
45
④口口⑤ |①-②-|
口口①口 |③-④-|
口②口口 |⑤---|
口口口③ |----|
46
②②⑤⑤ |①---|
②②③口 |②---|
口④①① |③-④-|
口口①① |⑤---|
47
①①口口 |--①-|
口口口口 |--②-|
口口口口
口口②口

④口口口
口③③口
口口口口 |③---|
口口口⑤ |④-⑤-|
48
⑤⑤②② |①---|
口③②② |②---|
①①④口 |③-④-|
①①口口 |⑤---|
49
④口⑦⑤ |①-②-|
口口①口 |③-④-|
口②口口 |⑤-⑥-|
⑥⑧口③ |⑦-⑧-|
50
②②⑤⑤ |①---|
②②③口 |②---|
口④①① |③-④-|
口口①① |⑤---|
51
①①口口 |--①-|
口口口口 |--②-|
口口口口
口口②口

④口口口
口③③口
口口口口 |③---|
口口口⑤ |④-⑤-|
52
⑤⑤②② |①---|
口③②② |②---|
①①④口 |③-④-|
①①口口 |⑤---|
53
口口口① |①---|
口口②口 |②---|
口③口口 |③---|
④口口口 |④---|
54
②②⑤⑤ |①---|
②②③口 |②---|
口④①① |③-④-|
口口①① |⑤---|
55
④口③口 |①---|
口②口口 |②---|
口口①口 |③---|
口口口⑤ |④-⑤-|
56
⑤⑤②② |①---|
口③②② |②---|
①①④口 |③-④-|
①①口口 |⑤---|
57
口口口① |①---|
口口②口 |②---|
口③口口 |③---|
④口口口 |④---|
58
②②⑤⑤ |①---|
②②③口 |②---|
口④①① |③-④-|
口口①① |⑤---|
59
①①口口 |--①-|
口③③口 |--②-|
④口口⑤ |③---|
口口②口 |④-⑤-|
60
①①①① |①---|
口口口口 |----|
口口口口 |----|
口口口口 |----|

accuracy: 100%
最終更新:2022年04月09日 16:54