アットウィキロゴ
Din Don Dan
Ryu☆ feat.Mayumi Morinaga

EXTREME

Level: 9.1
BPM: 140
Notes: 751

1
口口口口 |----|
口口口口 |----|
口口口口 |----|
口口口口 |----|
2
①②④口 |①--②|
⑧口口口 |③-④-|
口口③⑦ |⑤-⑥-|
⑥口口⑤ |⑦-⑧-|
3
口④②① |①--②|
口口口口 |③-④-|
口③口口
口口口口

口口口⑥
口口⑦口
口⑧口⑤ |--⑤-|
⑨口口口 |⑥⑦⑧⑨|
4
口口口口 |①--②|
口③口口 |③-④-|
口口口口
口④②①

⑤口口口
口口口⑥
⑦口口口 |⑤-⑥-|
口口口⑧ |⑦-⑧-|
5
口口口口 |①--②|
口口③口 |③-④-|
口口口口
①②④口

口口⑥口
口口口口
口口⑤口 |--⑤-|
⑦口口口 |⑥-⑦-|
6
①②④口 |①--②|
⑧口口口 |③-④-|
口口③⑦ |⑤-⑥-|
⑥口口⑤ |⑦-⑧-|
7
口④②① |①--②|
口口口口 |③-④-|
口③口口
口口口口

口口口⑦
口口⑧口
口⑨口口 |⑤--⑥|
⑩⑥⑤口 |⑦⑧⑨⑩|
8
④口⑧口 |①-②-|
口⑦口③ |③-④-|
②口⑥口 |⑤-⑥-|
口⑤口① |⑦-⑧-|
9
④⑧⑬⑨ |①②③④|
⑩⑭⑦③ |⑤⑥⑦⑧|
②⑥⑮⑪ |⑨⑩⑪⑫|
⑫⑯⑤① |⑬⑭⑮⑯|
10
①口口口 |①---|
口口口① |----|
①口口口
口口口①

②口口口
口口口口
口口口口 |----|
口口口③ |②-③-|
11
口①口口 |①---|
①①②② |②---|
①①②②
口口②口

③⑤③口
⑤⑤口口
⑤⑤口口 |③-④-|
口④口④ |⑤---|
12
口口口① |①-②-|
口口口口 |③-④-|
口口④口
②口口③

⑤⑤口⑦
⑤口口口
口口口口 |⑤-⑥-|
⑧⑥口口 |⑦-⑧-|
13
口口①口 |①---|
②②①① |②---|
②②①①
口②口口

口③⑤③
口⑥⑤⑤
口口⑤⑤ |③-④-|
④口④口 |⑤-⑥-|
14
②②口口 |①-②-|
②口口口 |--③-|
③口口口
③③口①

⑤口④④
口口口④
口口口口 |④---|
口口口⑥ |⑤-⑥-|
15
口①口口 |①---|
①①②② |②---|
①①②②
口口②口

③⑤③口
⑤⑤口口
⑤⑤口口 |③-④-|
口④⑥④ |⑤-⑥-|
16
口口口① |①-②-|
口口口口 |③-④-|
口口④口
②口口③

⑤⑦口⑦
⑤口口口
口口口口 |⑤-⑥-|
⑧口⑥口 |⑦-⑧-|
17
口口①口 |①---|
②②①① |②---|
②②①①
口②口口

口③⑤③
口⑥⑤⑤
口口⑤⑤ |③-④-|
④口④口 |⑤-⑥-|
18
②②口口 |①-②-|
②口口口 |--③-|
③口口口
③③口①

口⑤④④
口口⑤④
口⑥口口 |④---|
口口⑥口 |⑤-⑥-|
19
口口口② |①---|
口口口口 |②---|
②口口②
①①口①

⑤口④口
③口口④
口口③口 |③-④-|
口⑤口口 |⑤---|
20
口①口口 |①-②-|
口③口口 |③-④-|
②口口③
口口④①

⑤⑥⑤⑦
口口口⑤
口口⑧口 |⑤--⑥|
口口口口 |⑦-⑧-|
21
⑤口④口 |①---|
③口②④ |②---|
②口③② |③-④-|
①⑤①① |⑤---|
22
口⑤⑥⑥ |①-②-|
④②口⑤ |③-④-|
②④⑦③ |⑤---|
口⑦口① |⑥-⑦-|
23
⑥口⑤口 |①---|
④口②⑤ |②-③-|
②③④② |④-⑤-|
①⑥①① |⑥---|
24
口①口口 |①-②-|
口③口口 |③-④-|
②口口③
口口④①

⑤⑦⑤⑦
口口口⑤
口⑥⑥口 |⑤-⑥-|
口⑧口口 |⑦-⑧-|
25
⑤口④口 |①---|
③口②④ |②---|
②口③② |③-④-|
①⑤①① |⑤---|
26
口⑥口⑤ |①②③④|
⑧②口口 |⑤⑥⑦⑧|
口口⑦③
④口口①

口口⑨口
口⑬⑬口
⑬⑩口⑬ |⑨⑩⑪⑫|
口⑫⑪口 |⑬---|
27
①③⑤⑦ |①-②-|
⑤口⑧② |③-④-|
口⑨③口 |⑤-⑥-|
⑩④⑥口 |⑦⑧⑨⑩|
28
③口④口 |①---|
口⑤⑦口 |②-③-|
口口口⑥ |④-⑤-|
⑥④②① |⑥-⑦-|
29
⑤口口① |①---|
口口口② |②---|
口①口③ |③-④-|
口④⑥⑤ |⑤-⑥-|
30
口②①口 |①---|
口①②口 |②---|
②口口口
①口口口

⑤⑥口口
③口口⑤
口口⑥口 |③-④-|
口④口口 |⑤-⑥-|
31
⑦⑤③① |①-②-|
②⑧口⑤ |③-④-|
口③⑨口 |⑤-⑥-|
口⑥④⑩ |⑦⑧⑨⑩|
32
口口口③ |①---|
口⑤④口 |②-③-|
口④⑤口 |④---|
①②④⑤ |⑤---|
33
①①①⑧ |①--②|
③口⑦② |③-④-|
⑤口口口 |⑤-⑥-|
⑦⑥④口 |⑦-⑧-|
34
口①口口 |①--②|
①③口② |--③-|
口②①③
口口口①

⑪口口④
⑦口⑧口
⑤口口口 |④⑤⑥⑦|
⑨口⑥⑩ |⑧⑨⑩⑪|
35
口口②口 |①---|
口①口① |②---|
口口①口
口②②口

口③⑥③
⑤口③⑥
口⑤④口 |③-④-|
口口口④ |⑤-⑥-|
36
①④口口 |①--②|
口⑦②口 |③-④-|
①④口⑥ |⑤---|
口③⑤口 |⑥-⑦-|
37
口②口口 |①---|
①口①口 |②---|
口①口口
口②②口

③⑥③口
⑥③口⑤
口④⑤口 |③-④-|
④口口口 |⑤-⑥-|
38
②口②① |①--②|
口口⑦口 |③-④-|
⑥④④① |⑤---|
口⑤③口 |⑥-⑦-|
39
口口②口 |①---|
口①口① |②---|
口口①口
口②②口

口③⑥③
⑤口③⑥
口⑤④口 |③-④-|
口口口④ |⑤-⑥-|
40
①④口口 |①--②|
口⑦②口 |③-④-|
①④口⑥ |⑤---|
口③⑤口 |⑥-⑦-|
41
口②口口 |①---|
①口①口 |②---|
口①口口
口②②口

③⑥③口
⑥③口⑤
口④⑤口 |③-④-|
④口口口 |⑤-⑥-|
42
④口口③ |①---|
口②②口 |--②-|
①口口① |----|
②①①② |③-④-|
43
口口口口 |①--②|
②口口④ |③--④|
口③口口
口口口①

⑦口口⑥
口口口口
口口⑤⑥ |⑤-⑥-|
口口口⑧ |⑦-⑧-|
44
口①口口 |①---|
①①②② |②---|
①①②②
口口②口

③⑤③口
⑤⑤口口
⑤⑤口口 |③-④-|
口④口④ |⑤---|
45
口口口① |①-②-|
口口口口 |③-④-|
口口④口
②口口③

⑤⑤口⑦
⑤口口口
口口口口 |⑤-⑥-|
⑧⑥口口 |⑦-⑧-|
46
口口①口 |①---|
②②①① |②---|
②②①①
口②口口

口③⑤③
口⑥⑤⑤
口口⑤⑤ |③-④-|
④口④口 |⑤-⑥-|
47
②②口口 |①-②-|
②口口口 |--③-|
③口口口
③③口①

⑤口④④
口口口④
口口口口 |④---|
口口口⑥ |⑤-⑥-|
48
口①口口 |①---|
①①②② |②---|
①①②②
口口②口

③⑤③口
⑤⑤口口
⑤⑤口口 |③-④-|
口④⑥④ |⑤-⑥-|
49
口口口① |①-②-|
口口口口 |③-④-|
口口④口
②口口③

⑤⑦口⑦
⑤口口口
口口口口 |⑤-⑥-|
⑧口⑥口 |⑦-⑧-|
50
口口①口 |①---|
②②①① |②---|
②②①①
口②口口

口③⑤③
口⑥⑤⑤
口口⑤⑤ |③-④-|
④口④口 |⑤-⑥-|
51
②②口口 |①-②-|
②口口口 |--③-|
③口口口
③③口①

⑤口④④
口口口④
口口口口 |④---|
口口口⑥ |⑤-⑥-|
52
口①口口 |①---|
①①②② |②---|
①①②②
口口②口

③⑤③口
⑤⑤口口
⑤⑤口口 |③-④-|
口④口④ |⑤---|
53
口口③① |①-②-|
口口口口 |③-④-|
口口口口
②口口④

⑧口口口
口⑥口口
口口口口 |⑤-⑥⑦|
⑨⑤⑦口 |⑧-⑨-|
54
口口①口 |①---|
②②①① |②---|
②②①①
口②口口

口③⑤③
口⑥⑤⑤
口口⑤⑤ |③-④-|
④口④口 |⑤-⑥-|
55
②④口口 |①-②-|
口口口口 |③-④-|
口口口口
口口③①

⑦口⑥口
口口口口
口口口⑤ |⑤--⑥|
口口口⑧ |⑦-⑧-|
56
口①口口 |①---|
①①②② |②---|
①①②②
口口②口

③⑤③口
⑤⑤口口
⑤⑤口口 |③-④-|
口④⑥④ |⑤-⑥-|
57
口口③① |①-②-|
口口口口 |③-④-|
口口口口
②口口④

⑤⑧口口
口口口口
口⑥口口 |⑤-⑥⑦|
⑨口⑦口 |⑧-⑨-|
58
口口①口 |①---|
②②①① |②---|
②②①①
口②口口

口③⑤③
口⑥⑤⑤
口口⑤⑤ |③-④-|
④口④口 |⑤-⑥-|
59
②②口口 |①-②-|
②口口口 |③-④⑤|
④口⑤口
④④③①

⑨口⑥⑥
⑨⑦口⑥
口口口⑧ |⑥-⑦-|
口口口⑧ |⑧-⑨-|
60
口口口口 |①---|
口口口口 |----|
口口口口 |----|
口①①口 |----|

accuracy: 100%
最終更新:2022年04月09日 17:09