アットウィキロゴ
ビューティフル レシート
Lucky Vacuum

EXTREME

Level: 10.1
BPM: 196
Notes(hold): 740(80)

1
口口口口 |----|
口口口口 |----|
口口口口 |----|
口口口口 |----|
2
①――< |①---|
口口口口 |----|
口口口口 |②---|
口口口口 |----|

②口口口
――②
口口口口
口口口口
3
口口口口 |①---|
口口口① |----|
①――< |②---|
口口口口 |----|

口口口口
口口口口
②口口口
――②
4
口口口口 |①---|
口口口口 |----|
口①―< |②---|
口口口① |----|

口口口口
口>―②
口②口口
口口口口
5
口①―< |①---|
口口口① |----|
口口口口 |②---|
口口口口 |③-④-|

④②口口
口口③口
口口口口
口口口口
6
口口①⑦ |①---|
口⑥口口 |②---|
口②⑤③ |③-④⑤|
口④口口 |⑥-⑦-|
7
③口④口 |--①-|
⑤口②口 |②-③-|
①口⑥口 |④-⑤-|
⑦口口口 |⑥-⑦-|
8
口口口口 |①---|
口口∨口 |--②-|
口口|口 |--③-|
口口①口 |④-⑤-|

口⑤口口
口口口④
口③口口
口口②口
9
②口③① |①--②|
口④<口 |--③-|
②口③① |④---|
口④<口 |⑤---|

口口口口
口⑤口口
口口口口
口⑤口口
10
②口口⑦ |①-②-|
④口口⑤ |③-④-|
⑥口口③ |⑤-⑥-|
⑧口口① |⑦-⑧-|
11
口⑧①口 |①-②-|
口⑥③口 |③-④-|
口④⑤口 |⑤-⑥-|
口②⑦口 |⑦-⑧-|
12
②口⑦口 |①-②-|
④口口⑤ |③-④-|
⑥口口③ |⑤-⑥-|
口⑧口① |⑦-⑧-|
13
口①⑧口 |①-②-|
③口口⑥ |③-④-|
⑤口口④ |⑤-⑥-|
口⑦②口 |⑦-⑧-|
14
①口口⑧ |①-②-|
③口口⑥ |③-④-|
⑤口口④ |⑤-⑥-|
⑦口口② |⑦-⑧-|
15
口⑦②口 |①-②-|
口⑤④口 |③-④-|
口③⑥口 |⑤-⑥-|
口①⑧口 |⑦-⑧-|
16
①口口⑧ |①-②-|
③口口⑥ |③-④-|
⑤口口④ |⑤-⑥-|
⑦口口② |⑦-⑧-|
17
⑤③②口 |①-②-|
⑦口口口 |③-④-|
口口口⑧ |⑤-⑥-|
口①④⑥ |⑦-⑧-|
18
口口口口 |①-②-|
⑦①③⑦ |③-④-|
⑦②④⑦ |⑤-⑥-|
口⑤⑥口 |⑦---|
19
①③口② |①---|
口⑦口④ |②---|
口口⑤口 |③-④⑤|
②⑥③① |⑥-⑦-|
20
③口③① |--①-|
②口②口 |②-③-|
口口∨① |④---|
④口④口 |⑤-⑥-|

口口口口
口口口⑥
口⑤口口
口口⑤口
21
⑤①口② |①-②-|
口③⑥口 |③-④-|
⑦口口④ |⑤-⑥-|
⑧口⑧口 |⑦-⑧-|
22
③><③ |--①-|
③><③ |--②-|
口②②口 |③-④-|
口①口① |⑤-⑥-|

④口口④
④口口④
⑥口口口
口口⑤口
23
口①②口 |①---|
口②①口 |②---|
口口③口 |③-④⑤|
口③口口 |⑥-⑦-|

口口口口
④口⑦口
口⑤口口
口口⑥口
24
口④口③ |--①-|
口②⑦⑤ |②-③-|
口⑥口① |④-⑤-|
口口口口 |⑥-⑦-|
25
①口口⑥ |①②③④|
②⑤⑩⑦ |⑤---|
③口口⑧ |⑥⑦⑧⑨|
④⑤⑩⑨ |⑩---|
26
①口②③ |①--②|
⑤③⑤口 |--③-|
②口①④ |④---|
口④口口 |⑤---|
27
①③口② |①---|
口⑦口④ |②---|
口口⑤口 |③-④⑤|
②⑥③① |⑥-⑦-|
28
③口③① |--①-|
②口②口 |②-③-|
口口∨① |④---|
④口④口 |⑤-⑥-|

口口口口
口口口⑥
口⑤口口
口口⑤口
29
⑤①口② |①-②-|
口③⑥口 |③-④-|
⑦口口④ |⑤-⑥-|
⑧口⑧口 |⑦-⑧-|
30
③><③ |--①-|
③><③ |--②-|
口②②口 |③-④-|
口①口① |⑤-⑥-|

④口口④
④口口④
⑥口口口
口口⑤口
31
口①②口 |①---|
口②①口 |②---|
口口③口 |③-④⑤|
口③口口 |⑥-⑦-|

口口口口
④口⑦口
口⑤口口
口口⑥口
32
口④口③ |--①-|
口②⑦⑤ |②-③-|
口⑥口① |④-⑤-|
口口口口 |⑥-⑦-|
33
①口口⑥ |①②③④|
②⑤⑩⑦ |⑤---|
③口口⑧ |⑥⑦⑧⑨|
④⑤⑩⑨ |⑩---|
34
①⑤①③ |①--②|
⑤②口口 |--③-|
①口①④ |④---|
口口口口 |⑤---|
35
①口①口 |①-②-|
口②口口 |③-④-|
③口③口 |⑤---|
口④口口 |⑥---|

口>―⑤
口口口口
口>―⑤
口口口口

口口口⑥
口口口⑥
口口口⑥
口口口⑥
36
①③②④ |①---|
口口口口 |②---|
口口口口 |③---|
①③②④ |④---|
37
口口口口 |①-②-|
①口③口 |③-④-|
口②口④ |⑤---|
①口③口 |⑥---|

⑤口口口
∧口口口
⑤口口口
∧口口口

⑥⑥口⑥
口口口口
⑥口口口
口口口口
38
口口口口 |①---|
④①口① |②---|
口②口② |③---|
④③口③ |④---|
39
口①口① |①-②-|
口口②口 |③-④-|
口③口③ |⑤---|
口口④口 |⑥---|

⑤―<口
口口口口
⑤―<口
口口口口

⑥口口口
⑥口口口
⑥口口口
⑥口口口
40
④②③① |①---|
口口口口 |②---|
口口口口 |③---|
④②③① |④---|
41
口口口① |①②③④|
①②③④ |⑤---|
⑥⑤⑩口 |⑥⑦⑧⑨|
⑨⑧⑦⑥ |⑩---|
42
②口①口 |①--②|
③③③口 |--③-|
口②口① |④---|
口口口口 |⑤---|

口∨口∨
口|口|
口|口|
口④④④

口口口口
口口口口
口口口口
口⑤口⑤
43
――① |①---|
口口口口 |----|
口口口口 |②---|
口口口口 |----|

口口口②
②――<
口口口口
口口口口
44
口口口口 |①---|
①口口口 |----|
――① |②---|
口口口口 |----|

口口口口
口口口口
口口口②
②――<
45
口口口口 |①---|
口口口口 |----|
―①口 |②---|
①口口口 |----|

口口口口
②―<口
口口②口
口口口口
46
―①口 |①---|
①口口口 |----|
口口口口 |②---|
口口口口 |----|

口口②口
口口口口
口口口口
口②口口
47
①――< |①---|
口口口口 |----|
口口口口 |②---|
口口口口 |----|

②口口口
――②
口口口口
口口口口
48
口口口口 |①---|
口口口① |----|
①――< |②---|
口口口口 |----|

口口口口
口口口口
②口口口
――②
49
口∨∨口 |①---|
口||口 |----|
口①①口 |----|
口口口① |----|
50
④口②口 |①---|
口③口① |②---|
口①①口 |③---|
口口口口 |④---|
51
口①口口 |①---|
口|口口 |----|
口∧口口 |----|
口口口口 |②---|

口②口②
口口口∧
口口口口
口口口口
52
∨口②① |①---|
③口∧口 |②---|
口①④口 |③---|
口∧口口 |④---|

口口③口
④口口口
口②口口
口口口口
53
口①―< |①---|
口口口口 |----|
口口口口 |②---|
口口口口 |----|

口②口口
口>―②
口口口口
口口口口
54
口口口口 |①---|
口口口① |②---|
口①―< |③---|
口口口口 |④---|

口口口口
口口口口
口③④口
口③②口
55
口口①< |①---|
口口口口 |----|
口口口口 |----|
口口口口 |②---|

②口②口
∧口口口
口口口口
口口口口
56
①②口∨ |①---|
口∧口③ |②---|
口④①口 |③---|
口口∧口 |④---|

口③口口
口口口④
口口②口
口口口口
57
口口①口 |①---|
①口口口 |②---|
∧口②③ |③---|
口口口口 |④---|

口口口④
④口口口
口口口口
口口口口
58
①<①口 |①---|
口口口口 |②---|
口口口口 |③---|
口口口口 |④---|

②口口口
口口口口
∨③②口
③口口口

口④口口
口口口口
口口口口
④口口口
59
口口⑤① |①---|
口④口口 |②---|
③口口口 |③-④-|
口口口② |⑤---|
60
①口口④ |①-②-|
口⑤⑧口 |③-④-|
口⑦⑥口 |⑤-⑥-|
②口口③ |⑦-⑧-|
61
③②①③ |①---|
①口口② |②---|
②口口① |③-④⑤|
口①②口 |⑥-⑦-|

口口⑦口
口口⑦口
口④⑤口
口口口⑥
62
口①口③ |--①-|
①口口③ |②-③-|
④<口② |④---|
④<②口 |⑤-⑥-|

口口口口
口⑤⑥口
⑤口口口
⑤口口口
63
⑤③①口 |①-②-|
口⑥口⑧ |③-④-|
⑧口⑦口 |⑤-⑥-|
口④②⑧ |⑦-⑧-|
64
②③②③ |--①-|
①∧口∧ |--②-|
口口∨① |③-④-|
①②③口 |⑤-⑥-|

口④口④
口口⑥口
口⑤口口
口口④口
65
③口②③ |①---|
②①口① |②---|
①口①② |③-④⑤|
口②口口 |⑥-⑦-|

口⑦口口
口⑦口口
口⑥口口
口口⑤④
66
口口口口 |--①-|
③口④口 |②-③-|
①⑦②⑥ |④-⑤-|
⑤口口口 |⑥-⑦-|
67
①②③④ |①②③④|
口⑩口⑤ |⑤---|
⑩口⑤口 |⑥⑦⑧⑨|
⑨⑧⑦⑥ |⑩---|
68
②口①口 |①--②|
口口口口 |--③-|
口②口① |④---|
口口口口 |⑤---|

口口∨③
口口④口
口口③∨
口口口④

口口口口
口⑤⑤口
口口口口
⑤口口⑤
69
③①②③ |①---|
②口口① |②---|
①口口② |③-④⑤|
口②①口 |⑥-⑦-|

口⑦口口
口⑦口口
口⑤④口
⑥口口口
70
③口①口 |--①-|
③口口① |②-③-|
②口>④ |④---|
口②>④ |⑤-⑥-|

口口口口
口⑥⑤口
口口口⑤
口口口⑤
71
口①③⑤ |①-②-|
⑧口⑥口 |③-④-|
口⑦口⑧ |⑤-⑥-|
⑧②④口 |⑦-⑧-|
72
③②③② |--①-|
∧口∧① |--②-|
①∨口口 |③-④-|
口③②① |⑤-⑥-|

④口④口
口⑥口口
口口⑤口
口④口口
73
③②口③ |①---|
①口①② |②---|
②①口① |③-④⑤|
口口②口 |⑥-⑦-|

口口⑦口
口口⑦口
口口⑥口
④⑤口口
74
口口口口 |--①-|
口④口③ |②-③-|
⑥②⑦① |④-⑤-|
口口口⑤ |⑥-⑦-|
75
④③②① |①②③④|
⑤口⑩口 |⑤---|
口⑤口⑩ |⑥⑦⑧⑨|
⑥⑦⑧⑨ |⑩---|
76
口①口② |①--②|
口口口口 |--③-|
①口②口 |④---|
口口口口 |⑤---|

③∨口口
口④口口
∨③口口
④口口口

口口口口
口⑤⑤口
口口口口
⑤口口⑤
77
口③口口 |①-②-|
口口口① |③-④-|
口③口① |⑤---|
口④②口 |⑥---|

⑤―<口
口口口口
⑤―<口
口口口口

⑥口口口
⑥口口口
⑥口口口
⑥口口口
78
④②③① |①---|
口口口口 |②---|
口口口口 |③---|
④②③① |④---|
79
口口口口 |①-②-|
④③口③ |③-④-|
②①口① |⑤---|
口口口口 |⑥---|

口⑤口⑤
口|口|
口∧口∧
口口口口

⑥⑥⑥⑥
口口口口
口口口口
口口口口
80
口口口口 |①---|
口②①口 |②---|
①③口② |③---|
④口③④ |④---|
81
口口③口 |①-②-|
①口口口 |③-④-|
①口③口 |⑤---|
口②④口 |⑥---|

口>―⑤
口口口口
口>―⑤
口口口口

口口口⑥
口口口⑥
口口口⑥
口口口⑥
82
①③②④ |①---|
口口口口 |②---|
口口口口 |③---|
①③②④ |④---|
83
①口口口 |①②③④|
④③②① |⑤---|
口⑩⑤⑥ |⑥⑦⑧⑨|
⑥⑦⑧⑨ |⑩---|
84
口①口② |①--②|
口③③③ |--③-|
①口②口 |④---|
口口口口 |⑤---|

∨口∨口
|口|口
|口|口
④④④口

口口口口
口口口口
口口口⑤
⑤口⑤口
85
①∨①口 |①---|
口|口口 |----|
口①口口 |----|
口口口口 |----|
86
口口口口 |①---|
口口口口 |----|
口①口口 |----|
口口口口 |----|
最終更新:2022年04月07日 12:03