アットウィキロゴ
X-Plan
Tom-H@ck feat.Nadia

BASIC

Level: 2
BPM: 250
Notes: 203

1
口口口口 |----|
口口口口 |----|
口口口口 |----|
口口口口 |----|
2
口口口口 |----|
口口口口 |----|
口口口口 |----|
口口口口 |----|
3
口口口口 |①---|
①口口口 |----|
口口口口 |----|
口口口口 |----|
4
口口口口 |①---|
口口口① |----|
口口口口 |----|
口口口口 |----|
5
口口口口 |①---|
口口口口 |----|
口①①口 |----|
口口口口 |----|
6
口①①口 |①---|
口口口口 |----|
口口口口 |----|
口口口口 |----|
7
口口口口 |①---|
口口口口 |----|
①口口口 |----|
口口口口 |----|
8
口口口口 |①---|
口口口口 |----|
口口口① |----|
口口口口 |----|
9
口口口口 |①---|
口口口口 |----|
口口口口 |----|
口①①口 |----|
10
口口口口 |①---|
口①①口 |----|
口口口口 |----|
口口口口 |----|
11
①口口口 |①---|
口口口口 |----|
口口口口 |----|
口口口口 |----|
12
口口口口 |①---|
口①口口 |----|
口口口口 |----|
口口口口 |----|
13
口口口① |①---|
口口口口 |----|
口口口口 |----|
口口口口 |----|
14
口口口口 |①---|
口口①口 |----|
口口口口 |----|
口口口口 |----|
15
口口口口 |①---|
口口口口 |----|
口口口口 |----|
口①①口 |----|
16
口口口口 |①---|
口①①口 |----|
口口口口 |----|
口口口口 |----|
17
口口口口 |①---|
口口口口 |----|
口①①口 |----|
口口口口 |----|
18
口①①口 |①---|
口口口口 |----|
口口口口 |----|
口口口口 |----|
19
口口口口 |①---|
①口口口 |----|
口口口口 |----|
口口口口 |----|
20
口口口口 |①---|
口口口① |----|
口口口口 |----|
口口口口 |----|
21
口口口口 |①---|
口口口口 |----|
口①①口 |----|
口口口口 |----|
22
口①①口 |①---|
口口口口 |----|
口口口口 |----|
口口口口 |----|
23
口口口口 |①---|
口口口口 |----|
①口口② |----|
口口口口 |②---|
24
口口口口 |----|
口口口口 |----|
口口口口 |①---|
口①口口 |----|
25
口口口口 |----|
口口口口 |①---|
口口口口 |----|
口口①口 |----|
26
口口口口 |①---|
口口口口 |----|
口①口口 |----|
口口口口 |----|
27
①口口口 |①---|
口口口口 |----|
口口口口 |----|
口口口口 |----|
28
口口口口 |①---|
口①口口 |----|
口口口口 |----|
口口口口 |----|
29
口口口① |①---|
口口口口 |----|
口口口口 |----|
口口口口 |----|
30
口口口口 |①---|
口口①口 |----|
口口口口 |----|
口口口口 |----|
31
口口口口 |①---|
口口口口 |----|
口①口口 |----|
口口口口 |----|
32
口口口口 |①---|
口口口口 |----|
口口①口 |----|
口口口口 |----|
33
口口口口 |①---|
口①①口 |----|
口口口口 |----|
口口口口 |----|
34
①口口① |①---|
口口口口 |----|
口口口口 |----|
口口口口 |----|
35
口口口口 |----|
口②口口 |----|
口口①口 |①---|
口口口口 |②---|
36
口口①① |----|
口口口口 |①---|
口口口口 |----|
口口口口 |----|
37
口口口口 |①---|
口口①① |----|
口口口口 |----|
口口口口 |----|
38
①①口口 |----|
口口口口 |①---|
口口口口 |----|
口口口口 |----|
39
口口口口 |①---|
①①口口 |----|
口口口口 |----|
口口口口 |----|
40
口口口口 |①---|
口口口口 |----|
口②②口 |②---|
口①①口 |----|
41
口②②口 |①---|
口①①口 |----|
口口口口 |②---|
口口口口 |----|
42
①口口① |①---|
②口口② |----|
口口口口 |②---|
口口口口 |----|
43
口口口口 |①---|
口口③口 |----|
①②口① |②---|
口口口口 |③---|
44
①①口口 |----|
口口口口 |①---|
口口口口 |----|
口口口口 |----|
45
口口口口 |①---|
①①口口 |----|
口口口口 |----|
口口口口 |----|
46
口口①① |----|
口口口口 |①---|
口口口口 |----|
口口口口 |----|
47
口口口口 |①---|
口口①① |----|
口口口口 |----|
口口口口 |----|
48
口口口口 |①---|
口口口口 |----|
口口口口 |②---|
①②口口 |----|
49
口口口口 |①---|
口口口口 |----|
口口口口 |②---|
口口①② |----|
50
口口口口 |①---|
口口口口 |----|
口口②① |②---|
口口口口 |----|
51
口口口口 |①---|
口口口口 |----|
②①口口 |②---|
口口口口 |----|
52
口口口口 |①---|
口①①口 |----|
口口口口 |----|
口口口口 |----|
53
口①口口 |----|
口口口口 |----|
口口口口 |①---|
口口口口 |----|
54
口口①口 |①---|
口口口口 |----|
口口口口 |----|
口口口口 |----|
55
口口口口 |----|
口口口口 |----|
口口口口 |----|
口口口口 |----|
56
口口口口 |①---|
①口口口 |----|
口口口口 |----|
口口口口 |----|
57
口口口口 |①---|
口口口① |----|
口口口口 |----|
口口口口 |----|
58
口口口口 |①---|
口口口口 |----|
口①①口 |----|
口口口口 |----|
59
口①①口 |①---|
口口口口 |----|
口口口口 |----|
口口口口 |----|
60
口口口口 |①---|
口口口口 |----|
①口口口 |----|
口口口口 |----|
61
口口口口 |①---|
口口口口 |----|
口口口① |----|
口口口口 |----|
62
口口口口 |①---|
口口口口 |----|
口口口口 |----|
口①①口 |----|
63
口口口口 |①---|
口①①口 |----|
口口口口 |----|
口口口口 |----|
64
口口口口 |----|
口口口口 |----|
口口口口 |----|
口口口口 |----|
65
①①口口 |①---|
口口口口 |----|
口口口口 |----|
口口口口 |----|
66
口口口口 |----|
①①口口 |①---|
口口口口 |----|
口口口口 |----|
67
口口口口 |----|
口口口口 |----|
①①口口 |①---|
口口口口 |----|
68
口口口口 |----|
口口口口 |①---|
口口①口 |----|
口口口口 |----|
69
口口①① |①---|
口口口口 |----|
口口口口 |----|
口口口口 |----|
70
口口口口 |----|
口口①① |①---|
口口口口 |----|
口口口口 |----|
71
口口口口 |----|
口口口口 |----|
口口①① |①---|
口口口口 |----|
72
口口口口 |----|
口口口口 |①---|
口①口口 |----|
口口口口 |----|
73
①口口① |①---|
口口口口 |----|
口口口口 |----|
口口口口 |----|
74
口口口口 |----|
口①①口 |①---|
口口口口 |----|
口口口口 |----|
75
口口口口 |----|
口口口口 |----|
口①①口 |①---|
口口口口 |----|
76
口口口口 |----|
口①口口 |①---|
口口口口 |----|
口口口口 |----|
77
口口口口 |①---|
口口口口 |----|
口口口口 |----|
①口口① |----|
78
口口口口 |----|
口口口口 |①---|
口①①口 |----|
口口口口 |----|
79
口口口口 |----|
口①①口 |----|
口口口口 |①---|
口口口口 |----|
80
口口②① |①---|
口口口口 |----|
口口口口 |②---|
口口口口 |----|
81
②①口口 |①---|
口口口口 |----|
口口口口 |②---|
口口口口 |----|
82
口口口口 |----|
口口口口 |----|
口口口口 |----|
口口口口 |----|
83
口口口口 |----|
口②口口 |----|
口口①口 |①---|
口口口口 |②---|
84
口口①① |----|
口口口口 |①---|
口口口口 |----|
口口口口 |----|
85
口口口口 |①---|
口口①① |----|
口口口口 |----|
口口口口 |----|
86
①①口口 |----|
口口口口 |①---|
口口口口 |----|
口口口口 |----|
87
口口口口 |①---|
①①口口 |----|
口口口口 |----|
口口口口 |----|
88
口口口口 |①---|
口口口口 |----|
口②②口 |②---|
口①①口 |----|
89
口②②口 |①---|
口①①口 |----|
口口口口 |②---|
口口口口 |----|
90
①口口① |①---|
②口口② |----|
口口口口 |②---|
口口口口 |----|
91
口口口口 |①---|
口口③口 |----|
①②口① |②---|
口口口口 |③---|
92
①①口口 |----|
口口口口 |①---|
口口口口 |----|
口口口口 |----|
93
口口口口 |①---|
①①口口 |----|
口口口口 |----|
口口口口 |----|
94
口口①① |----|
口口口口 |①---|
口口口口 |----|
口口口口 |----|
95
口口口口 |①---|
口口①① |----|
口口口口 |----|
口口口口 |----|
96
口口口口 |①---|
口口口口 |----|
口口口口 |②---|
①②口口 |----|
97
口口口口 |①---|
口口口口 |----|
口口口口 |②---|
口口①② |----|
98
口口口口 |①---|
口口口口 |----|
口口②① |②---|
口口口口 |----|
99
口口口口 |①---|
口口口口 |----|
②①口口 |②---|
口口口口 |----|
100
口口口口 |①---|
口①①口 |----|
口口口口 |----|
口口口口 |----|
101
口①口口 |----|
口口口口 |----|
口口口口 |①---|
口口口口 |----|
102
口口①口 |①---|
口口口口 |----|
口口口口 |----|
口口口口 |----|
103
口口口口 |----|
口口口口 |----|
口口口口 |----|
口口口口 |----|
104
①口口口 |①---|
口口口口 |----|
口口口口 |----|
口口口口 |----|
105
口口口口 |①---|
口①口口 |----|
口口口口 |----|
口口口口 |----|
106
口口口口 |①---|
口口口口 |----|
口口①口 |----|
口口口口 |----|
107
口口口口 |----|
口口口口 |----|
口口口口 |----|
口口口口 |----|
108
口口口口 |①---|
口口口口 |----|
②口口口 |②---|
①口口口 |----|
109
②口口口 |①---|
①口口口 |----|
口口口口 |②---|
口口口口 |----|
110
口口口口 |①---|
口①①口 |----|
口②②口 |②---|
口口口口 |----|
111
口口口口 |①---|
口口口口 |----|
口口口口 |----|
口①①口 |----|
112
口口口口 |①---|
口口口口 |----|
口口口② |②---|
口口口① |----|
113
口口口② |①---|
口口口① |----|
口口口口 |②---|
口口口口 |----|
114
口口口口 |①---|
口①①口 |----|
口②②口 |②---|
口口口口 |----|
115
口口口口 |①---|
口口口口 |----|
口口口口 |----|
口①①口 |----|

accuracy: 100%
最終更新:2022年04月07日 12:04