アットウィキロゴ
X-Plan
Tom-H@ck feat.Nadia

ADVANCED

Level: 7
BPM: 250
Notes: 482

1
口口口口 |----|
口口口口 |----|
口口口口 |----|
口口口口 |----|
2
口口口口 |----|
口口口口 |----|
口口口口 |----|
口口口口 |----|
3
口①②口 |①-②-|
口口口口 |----|
口③④口 |③-④-|
口口口口 |----|
4
口口口口 |①-②-|
口①②口 |----|
口口口口 |③-④-|
口③④口 |----|
5
④口口④ |①---|
③口口③ |②---|
②口口② |③---|
①口口① |④---|
6
口口口口 |①---|
口①①口 |----|
口①①口 |----|
口口口口 |----|
7
口①②口 |①-②-|
口口口口 |----|
口③④口 |③-④-|
口口口口 |----|
8
口口口口 |①-②-|
口①②口 |----|
口口口口 |③-④-|
口③④口 |----|
9
④口口④ |①---|
③口口③ |②---|
②口口② |③---|
①口口① |④---|
10
口口口口 |①---|
口①①口 |----|
口①①口 |②---|
口②③口 |③---|
11
②口口口 |①---|
口口口口 |----|
口口口口 |②---|
口口口① |----|
12
口口口① |①---|
口口口口 |②-③-|
口②③口 |----|
口口口口 |----|
13
口口口② |①---|
口①口口 |----|
口口口口 |②---|
口口口口 |----|
14
①口口口 |①---|
口口口口 |②-③-|
口③②口 |----|
口口口口 |----|
15
①口口① |----|
口口口口 |①---|
口②②口 |--②-|
口口口口 |----|
16
口口口口 |①---|
①口口① |--②-|
口口口口 |----|
口②②口 |----|
17
①口口① |----|
口口口口 |①---|
口口口口 |--②-|
口②②口 |----|
18
口口口口 |①---|
②口口② |--②-|
①③③① |----|
口口口口 |③---|
19
口①②口 |①-②-|
口③④口 |----|
口口口口 |③-④-|
口口口口 |----|
20
口口口口 |①-②-|
口口口口 |----|
口①②口 |③-④-|
口③④口 |----|
21
④口口④ |①---|
③口口③ |②---|
②口口② |③---|
①口口① |④---|
22
口口口口 |①---|
口①①口 |----|
口①①口 |----|
口口口口 |----|
23
①口口③ |①---|
口②口口 |②---|
口口口口 |----|
口口口口 |③---|
24
口口口口 |①---|
口口①口 |----|
口②口口 |②---|
③口口口 |③---|
25
口口口口 |----|
口口口口 |①---|
口口①口 |②---|
口口口② |----|
26
口口口口 |①---|
②口口② |②---|
口口口口 |----|
口①①口 |----|
27
口口口口 |①---|
口口口口 |②---|
①口口④ |③---|
口②③口 |④---|
28
口②③口 |①---|
①口口④ |②---|
口口口口 |③---|
口口口口 |④---|
29
口口口口 |①---|
口①②口 |②---|
口③④口 |③---|
口口口口 |④---|
30
①口口① |①---|
口口口口 |----|
口口口口 |----|
口口口口 |----|
31
口口口口 |①---|
口口口口 |②---|
④口口① |③---|
口③②口 |④---|
32
口③②口 |①---|
④口口① |②---|
口口口口 |③---|
口口口口 |④---|
33
口口口口 |①---|
口口⑤口 |--②-|
②④口② |--③-|
①口③① |④-⑤-|
34
口①口口 |①---|
口口口口 |----|
口口口口 |----|
口口口口 |----|
35
口①口口 |----|
口口②口 |----|
口③口口 |①-②-|
口口④口 |③-④-|
36
口口①① |----|
口口口口 |①---|
口口口口 |----|
②②口口 |②---|
37
口③③口 |①---|
②口口① |--②-|
②口口① |----|
口口口口 |③---|
38
口口口口 |----|
口口口口 |①---|
口口口口 |----|
①①②② |②---|
39
口③③口 |①---|
①口口② |--②-|
①口口② |----|
口口口口 |③---|
40
①口口① |①---|
口口口口 |----|
口口口口 |②---|
口②②口 |----|
41
口①①口 |①---|
口口口口 |----|
口口口口 |②---|
②口口② |----|
42
口口口口 |①---|
口②②口 |----|
口①①口 |②---|
口口口口 |----|
43
①口⑤① |①---|
口④口口 |----|
口口③口 |②-③-|
口②口口 |④-⑤-|
44
①①口口 |----|
口口口口 |①---|
口口口口 |----|
口口②② |②---|
45
口③③口 |①---|
①口口② |--②-|
①口口② |----|
口口口口 |③---|
46
口口口口 |----|
口口口口 |①---|
口口口口 |----|
②②①① |②---|
47
口③③口 |①---|
②口口① |--②-|
②口口① |----|
口口口口 |③---|
48
口口口口 |①---|
口②③口 |----|
口口口口 |②-③-|
①口④① |--④-|
49
④口口口 |--①-|
口口口① |--②-|
口②③口 |③---|
口口口口 |④---|
50
口口④① |①---|
口口口口 |----|
口口口口 |②-③-|
口②③口 |--④-|
51
④口口口 |--①-|
口口口口 |--②-|
口②③口 |③---|
口口口① |④---|
52
口口口① |①---|
口口口口 |----|
口口口口 |----|
口口口口 |----|
53
①口口口 |----|
口①口口 |----|
口口①口 |①---|
口口口① |----|
54
口口口① |①---|
口口①口 |----|
口①口口 |----|
①口口口 |----|
55
口口口口 |----|
口口口口 |----|
口口口口 |----|
口口口口 |----|
56
口①②口 |①-②-|
口口口口 |----|
口③④口 |③-④-|
口口口口 |----|
57
口口口口 |①-②-|
口①②口 |----|
口口口口 |③-④-|
口③④口 |----|
58
④口口④ |①---|
③口口③ |②---|
②口口② |③---|
①口口① |④---|
59
口口口口 |①---|
口①①口 |----|
口①①口 |----|
口口口口 |----|
60
口①②口 |①-②-|
口口口口 |----|
口③④口 |③-④-|
口口口口 |----|
61
口口口口 |①-②-|
口①②口 |----|
口口口口 |③-④-|
口③④口 |----|
62
④口口④ |①---|
③口口③ |②---|
②口口② |③---|
①口口① |④---|
63
口口口口 |①---|
口①①口 |----|
口①①口 |----|
口口口口 |----|
64
口口口口 |----|
口口口口 |----|
口口口口 |----|
口口口口 |----|
65
口①口口 |①---|
口③口② |②---|
口口④口 |③---|
口口口口 |④---|
66
口口②口 |①---|
③口④口 |②---|
口口口口 |③---|
口口口① |④---|
67
口③口口 |①---|
口口口④ |②---|
口①口口 |③---|
②口口口 |④---|
68
口口口口 |①---|
①⑦⑥口 |②-③-|
口⑤④口 |④-⑤-|
口③②口 |⑥-⑦-|
69
口口①口 |①---|
②口口③ |②---|
口口④口 |③---|
口口口口 |④---|
70
②口口口 |①---|
口④③口 |②---|
口口口口 |③---|
口①口口 |④---|
71
口口③口 |①---|
④口口口 |②---|
口口①口 |③---|
口口口② |④---|
72
口口口口 |①---|
口⑥⑦口 |②-③-|
口④⑤① |④-⑤-|
口②③口 |⑥-⑦-|
73
口①口口 |①---|
③口口② |②---|
口④口口 |③---|
口口口口 |④---|
74
口口口② |①---|
口③④口 |②---|
口口口口 |③---|
口口①口 |④---|
75
口③口口 |①---|
口口口④ |②---|
口①口口 |③---|
②口口口 |④---|
76
口口口口 |①---|
①⑦⑥口 |②-③-|
口⑤④口 |④-⑤-|
口③②口 |⑥-⑦-|
77
口口①口 |①---|
②口口③ |②---|
口口④口 |③---|
口口口口 |④---|
78
②口口口 |①---|
口④③口 |②---|
口口口口 |③---|
口①口口 |④---|
79
口口③口 |①---|
④口口口 |②---|
口口①口 |③---|
口口口② |④---|
80
⑥口口⑤ |①-②-|
⑧口口⑦ |③-④-|
口④③口 |⑤-⑥-|
口②①口 |⑦-⑧-|
81
口⑧⑦口 |①-②-|
口⑥⑤口 |③-④-|
④口口③ |⑤-⑥-|
②口口① |⑦-⑧-|
82
口口口口 |----|
口口口口 |----|
口口口口 |----|
口口口口 |----|
83
口①口口 |----|
口口②口 |----|
口③口口 |①-②-|
口口④口 |③-④-|
84
口口①① |----|
口口口口 |①---|
口口口口 |----|
②②口口 |②---|
85
口③③口 |①---|
②口口① |--②-|
②口口① |----|
口口口口 |③---|
86
口口口口 |----|
口口口口 |①---|
口口口口 |----|
①①②② |②---|
87
口③③口 |①---|
①口口② |--②-|
①口口② |----|
口口口口 |③---|
88
①口口① |①---|
口口口口 |----|
口口口口 |②---|
口②②口 |----|
89
口①①口 |①---|
口口口口 |----|
口口口口 |②---|
②口口② |----|
90
口口口口 |①---|
口②②口 |----|
口①①口 |②---|
口口口口 |----|
91
①口⑤① |①---|
口④口口 |----|
口口③口 |②-③-|
口②口口 |④-⑤-|
92
①①口口 |----|
口口口口 |①---|
口口口口 |----|
口口②② |②---|
93
口③③口 |①---|
①口口② |--②-|
①口口② |----|
口口口口 |③---|
94
口口口口 |----|
口口口口 |①---|
口口口口 |----|
②②①① |②---|
95
口③③口 |①---|
②口口① |--②-|
②口口① |----|
口口口口 |③---|
96
口口口口 |①---|
口②③口 |----|
口口口口 |②-③-|
①口④① |--④-|
97
④口口口 |--①-|
口口口① |--②-|
口②③口 |③---|
口口口口 |④---|
98
口口④① |①---|
口口口口 |----|
口口口口 |②-③-|
口②③口 |--④-|
99
④口口口 |--①-|
口口口口 |--②-|
口②③口 |③---|
口口口① |④---|
100
口口口① |①---|
口口口口 |----|
口口口口 |----|
口口口口 |----|
101
①口口口 |----|
口①口口 |----|
口口①口 |①---|
口口口① |----|
102
口口口① |①---|
口口①口 |----|
口①口口 |----|
①口口口 |----|
103
口口口口 |----|
口口口口 |----|
口口口口 |----|
口口口口 |----|
104
口①口口 |①---|
口口口② |--②-|
口③口口 |----|
口口口口 |③---|
105
口口②口 |①---|
口③口口 |--②-|
口口①口 |----|
口口口口 |③---|
106
口口口口 |①---|
口口①口 |----|
口口口口 |----|
口口口口 |----|
107
①口口① |①---|
②口口② |--②-|
③口口③ |----|
口口口口 |③---|
108
口①②口 |①-②-|
口口口口 |----|
口③④口 |③-④-|
口口口口 |----|
109
口口口口 |①-②-|
口①②口 |----|
口口口口 |③-④-|
口③④口 |----|
110
口③③口 |①---|
②口口② |②---|
①④④① |③---|
口口口口 |④---|
111
①口口① |①---|
口口口口 |----|
口口口口 |----|
口口口口 |----|
112
口口口口 |①-②-|
口①②口 |----|
口口口口 |③-④-|
口③④口 |----|
113
口①②口 |①-②-|
口口口口 |----|
口③④口 |③-④-|
口口口口 |----|
114
口④④口 |①---|
②口口② |②---|
口口口口 |③---|
①③③① |④---|
115
口口口口 |①---|
口口口口 |----|
①口口① |----|
口口口口 |----|

accuracy: 100%
最終更新:2022年04月07日 12:04