アットウィキロゴ
X-Plan
Tom-H@ck feat.Nadia

EXTREME

Level: 9.0
BPM: 250
Notes: 810

1
口口口口 |----|
口口口口 |----|
口口口口 |----|
口口口口 |----|
2
④口口⑤ |①-②-|
口⑥口③ |③-④-|
②口⑦口 |⑤-⑥-|
⑧口口① |⑦-⑧-|
3
口④①口 |①-②-|
②口口⑤ |③---|
口口口口 |④-⑤-|
口⑥③口 |⑥---|
4
口口口口 |①-②-|
口④①口 |③---|
②口口⑤ |④-⑤-|
⑥口口③ |⑥---|
5
④口口④ |①---|
③口口③ |②---|
口②②口 |③---|
口①①口 |④---|
6
口②口口 |①---|
口①①口 |--②-|
①口口① |----|
③口口口 |③---|
7
口④①口 |①-②-|
②口口⑤ |③---|
口口口口 |④-⑤-|
口⑥③口 |⑥---|
8
口口口口 |①-②-|
口④①口 |③---|
②口口⑤ |④-⑤-|
⑥口口③ |⑥---|
9
④口口④ |①---|
③口口③ |②---|
口②②口 |③---|
口①①口 |④---|
10
⑥②口口 |①---|
口①①⑤ |--②-|
①④口① |③-④-|
口口③口 |⑤-⑥-|
11
口口口① |①-②-|
口④④口 |--③-|
⑤口②⑤ |④---|
③口口口 |⑤---|
12
②口①④ |①---|
口口口口 |②-③-|
⑥③⑤口 |--④-|
口①口口 |⑤-⑥-|
13
口⑤④口 |①-②-|
口④⑤① |--③-|
口口口口 |④---|
③口②口 |⑤---|
14
②口口③ |①---|
②口口③ |②-③-|
口口口① |----|
口①口口 |----|
15
③①口口 |①---|
口口口口 |②---|
口口④② |③-④-|
口口②④ |----|
16
口口口② |①---|
口④④口 |②-③-|
③①口口 |----|
①③口口 |④---|
17
②口③口 |----|
口口口① |①---|
口口口③ |②-③-|
口口①口 |----|
18
口③口② |①---|
①口口口 |②-③-|
③④④口 |----|
口①口口 |④---|
19
口④①口 |①-②-|
②口口⑤ |③---|
口口口口 |④-⑤-|
口⑥③口 |⑥---|
20
口口口口 |①-②-|
口④①口 |③---|
②口口⑤ |④-⑤-|
⑥口口③ |⑥---|
21
④口口④ |①---|
③口口③ |②---|
口②②口 |③---|
口①①口 |④---|
22
口②口口 |①---|
口①①口 |--②-|
①口口① |----|
③口口口 |③---|
23
口④①口 |①-②-|
④②⑤① |③---|
②口口⑤ |----|
口口③③ |④-⑤-|
24
口口口② |①---|
口③口口 |----|
③口②口 |②-③-|
①①④④ |④---|
25
①口口口 |----|
口口②口 |①-②-|
口①口② |③---|
③③口口 |----|
26
口④①口 |①-②-|
口②⑤口 |③---|
②⑥①口 |④-⑤-|
口口③③ |⑥---|
27
①口②② |①---|
①口⑤口 |②---|
口口口③ |③---|
④④口③ |④-⑤-|
28
②口④口 |--①-|
口口口③ |--②-|
口①③④ |③---|
口口口口 |④---|
29
④口口⑤ |①---|
①②③口 |②---|
口②口口 |③-④-|
①口③口 |--⑤-|
30
②②口口 |①---|
口口口口 |----|
口口口口 |----|
口①口① |②---|
31
口口口③ |①---|
口④口③ |②---|
①⑥⑤口 |③-④-|
①口②② |⑤-⑥-|
32
口①①⑤ |①---|
②口口⑤ |--②-|
②口口口 |③-④-|
口④③口 |⑤---|
33
①口口口 |①---|
③②②口 |--②-|
口①口④ |--③-|
⑤口口口 |④-⑤-|
34
口①①口 |①---|
口口口③ |----|
②口口口 |②-③-|
口④⑤口 |④-⑤-|
35
①口口④ |①-②-|
⑤⑤⑧⑧ |③-④-|
⑦⑦⑥⑥ |⑤-⑥-|
③口口② |⑦-⑧-|
36
③②②⑤ |①---|
④⑤口口 |②---|
口口口口 |③-④-|
口①①口 |⑤---|
37
⑤④口口 |①---|
口口⑤③ |②-③-|
③①②口 |--④-|
口口口① |⑤---|
38
口口④③ |①---|
口②口口 |②---|
口口⑤② |③-④-|
⑤①①口 |⑤---|
39
口①口口 |①---|
口⑤⑤① |②-③-|
③②口④ |--④-|
口口③口 |⑤---|
40
③②③口 |①---|
口口口口 |②---|
④口口口 |③---|
口①口① |④---|
41
口口口③ |①---|
①④口② |②---|
口口口③ |③---|
①口口口 |④---|
42
口口口口 |①---|
口口③口 |②---|
①③①口 |③---|
口②④口 |④---|
43
①①①① |①---|
③③⑥⑥ |②---|
⑤⑤④④ |③-④-|
口口口② |⑤-⑥-|
44
③②②口 |①---|
④⑤口口 |②---|
口口口⑤ |③-④-|
口①①口 |⑤---|
45
⑤④⑤口 |①---|
口口口口 |②-③-|
口口①口 |--④-|
①③②③ |⑤---|
46
口口口③ |①---|
口②⑤① |②---|
②⑤口④ |③-④-|
口口口口 |⑤---|
47
口②③口 |①---|
③⑤口口 |②-③-|
口口①⑤ |--④-|
①④口口 |⑤---|
48
口③④口 |①---|
③⑤①④ |②---|
口①②口 |③-④-|
⑤口①口 |--⑤-|
49
口④④口 |--①-|
口口口口 |--②-|
①口③② |③---|
口①口口 |④---|
50
①口⑤① |①---|
口①①⑤ |②---|
③口口④ |③-④-|
③口②④ |--⑤-|
51
口口口① |--①-|
②③口口 |--②-|
口口①口 |③---|
口④口口 |④---|
52
口①口口 |①---|
③口①口 |②---|
口①口④ |③-④-|
⑤口①② |⑤---|
53
③口①口 |①---|
口③口口 |②---|
②口③口 |③---|
口口口③ |----|
54
口⑤⑥① |①-②-|
⑦口①④ |③-④-|
⑦①口④ |⑤-⑥-|
①③②口 |⑦---|
55
⑥口口⑦ |①-②-|
口②③口 |③-④-|
口④①口 |⑤-⑥-|
⑧口口⑤ |⑦-⑧-|
56
口④①口 |①-②-|
②口口⑤ |③---|
口口口口 |④-⑤-|
口⑥③口 |⑥---|
57
口口口口 |①-②-|
口④①口 |③---|
②口口⑤ |④-⑤-|
⑥口口③ |⑥---|
58
④口口④ |①---|
③口口③ |②---|
口②②口 |③---|
口①①口 |④---|
59
口②口口 |①---|
口①①口 |--②-|
①口口① |----|
③口口口 |③---|
60
口④①口 |①-②-|
②口口⑤ |③---|
口口口口 |④-⑤-|
口⑥③口 |⑥---|
61
口口口口 |①-②-|
口④①口 |③---|
②口口⑤ |④-⑤-|
⑥口口③ |⑥---|
62
④口口④ |①---|
③口口③ |②---|
口②②口 |③---|
口①①口 |④---|
63
口②口口 |①---|
口①①口 |--②-|
①口口① |----|
③口口口 |③---|
64
口口口口 |----|
口口口口 |----|
口口口口 |----|
口口口口 |----|
65
口口④口 |①---|
③口口口 |②---|
口口口① |③---|
口②口口 |④---|
66
口③口口 |①---|
口口口② |②---|
④①口口 |③---|
口口口口 |④---|
67
口口③口 |①---|
口②口口 |②---|
口口口④ |③---|
口口①口 |④---|
68
口⑥⑦口 |①---|
④口口⑤ |②-③-|
口②③口 |④-⑤-|
口①口口 |⑥-⑦-|
69
①口口④ |①---|
口口口口 |②---|
口口口口 |③---|
②口口③ |④---|
70
口口口口 |①---|
口口口② |②---|
④①口口 |③---|
口口③口 |④---|
71
口①口口 |①---|
③口口口 |②---|
口口②口 |③---|
口④口口 |④---|
72
口口口口 |①---|
口⑦⑥口 |②-③-|
口⑤④① |④-⑤-|
③口②口 |⑥-⑦-|
73
④口①口 |①---|
口口口① |②---|
口口口口 |③---|
③口口② |④---|
74
口②口口 |①---|
②口口口 |②---|
口①①④ |③---|
口③口口 |④---|
75
口口①③ |①---|
口②②③ |②---|
口口口口 |③---|
口口④口 |④---|
76
口口口口 |①---|
口⑦⑥口 |②-③-|
①⑤②④ |④-⑤-|
口③口口 |⑥-⑦-|
77
④①口① |①---|
口口口口 |②---|
口口口口 |③---|
③口口② |④---|
78
口②口② |①---|
口口口口 |②---|
③①口① |③---|
口口④口 |④---|
79
③口③口 |①---|
口口口① |②---|
口②口② |③---|
口口口④ |④---|
80
口⑥口口 |①---|
口②⑤口 |②-③-|
口④③口 |④-⑤-|
①口⑦口 |⑥-⑦-|
81
③口口⑥ |①-②-|
口⑦口② |③-④-|
①口⑧④ |⑤-⑥-|
⑤口口口 |⑦-⑧-|
82
口口口口 |----|
口口口口 |----|
口口口口 |----|
口口口口 |----|
83
口口口口 |----|
①①④④ |----|
③③②② |①-②-|
口口口口 |③-④-|
84
③②②⑤ |①---|
④⑤口口 |②---|
口口口口 |③-④-|
口①①口 |⑤---|
85
⑤④口口 |①---|
口口⑤③ |②-③-|
③①②口 |--④-|
口口口① |⑤---|
86
口口④③ |①---|
口②口口 |②---|
口口⑤② |③-④-|
⑤①①口 |⑤---|
87
口①口口 |①---|
口⑤⑤① |②-③-|
③②口④ |--④-|
口口③口 |⑤---|
88
③②③口 |①---|
口口口口 |②---|
④口口口 |③---|
口①口① |④---|
89
口口口③ |①---|
①④口② |②---|
口口口③ |③---|
①口口口 |④---|
90
口口口口 |①---|
口口③口 |②---|
①③①口 |③---|
口②④口 |④---|
91
①口口① |①---|
口口口口 |----|
口口②口 |②---|
口口口口 |----|
92
③①①口 |①---|
④⑤②口 |②---|
口②口⑤ |③-④-|
口①①口 |⑤---|
93
⑤④⑤口 |①---|
口口口口 |②-③-|
口口①口 |--④-|
①③②③ |⑤---|
94
口口口③ |①---|
口②⑤① |②---|
②⑤口④ |③-④-|
口口口口 |⑤---|
95
口②③口 |①---|
③⑤口口 |②-③-|
口口①⑤ |--④-|
①④口口 |⑤---|
96
口③④口 |①---|
③⑤①④ |②---|
口①②口 |③-④-|
⑤口①口 |--⑤-|
97
口④④口 |--①-|
口口口口 |--②-|
①口③② |③---|
口①口口 |④---|
98
①口⑤① |①---|
口①①⑤ |②---|
③口口④ |③-④-|
③口②④ |--⑤-|
99
口口口① |--①-|
②③口口 |--②-|
口口①口 |③---|
口④口口 |④---|
100
口①口口 |①---|
③口①口 |②---|
口①口④ |③-④-|
⑤口①② |⑤---|
101
③口①口 |①---|
口③口口 |②---|
②口③口 |③---|
口口口③ |----|
102
口⑤⑥① |①-②-|
⑦口①④ |③-④-|
⑦①口④ |⑤-⑥-|
①③②口 |⑦---|
103
⑥口口③ |①-②-|
口口口口 |--③-|
口⑤②口 |④-⑤-|
④口口① |--⑥-|
104
口②①口 |①---|
②②①① |--②-|
口口口口 |----|
③口口③ |③---|
105
③口口③ |①---|
口口口口 |--②-|
②②①① |----|
口②①口 |③---|
106
口①①口 |①---|
①①①① |②---|
口口口口 |③---|
口④③② |④---|
107
④口口① |①-②-|
口⑧⑤口 |③-④-|
②⑥⑦③ |⑤-⑥-|
口口口口 |⑦-⑧-|
108
口④①口 |①-②-|
④口口① |--③-|
⑥口口③ |④-⑤-|
②②⑤⑤ |--⑥-|
109
②口口① |①-②-|
口②③⑤ |--③-|
口口①⑤ |④-⑤-|
④④⑥口 |--⑥-|
110
口①②② |①---|
①口口口 |②---|
口口③口 |③---|
④④口③ |④---|
111
②口口③ |①---|
②口①口 |--②-|
②①口口 |----|
口口口口 |③---|
112
口④①口 |①-②-|
④口口① |--③-|
⑥口口③ |④-⑤-|
②②⑤⑤ |--⑥-|
113
②口口① |①-②-|
口②③⑤ |--③-|
口口①⑤ |④-⑤-|
④④⑥口 |--⑥-|
114
口①②② |①---|
①口口口 |②---|
口口③口 |③---|
④④口③ |④---|
115
③口口⑥ |①-②-|
口⑦②口 |③-④-|
⑤①口④ |⑤-⑥-|
口口⑧口 |⑦-⑧-|

accuracy: 100%
最終更新:2022年04月07日 12:04