アットウィキロゴ
恋歌疾風!かるたクイーンいろは
ねこまんまチーム!

BASIC

Level: 3
BPM: 120-168
Notes: 273

1
口口口口 |(120)----|
口口口口 |----|
口口口口 |----|
口口口口 |----|
2
口口口口 |①---|
口口①口 |----|
口口口口 |----|
口口口口 |----|
3
口口口口 |①---|
口口口口 |----|
口①口口 |----|
口口口口 |----|
4
口口口口 |①---|
口①口口 |----|
口口口口 |----|
口口口口 |----|
5
口口口口 |①---|
口口口口 |----|
口口①口 |----|
口口口口 |----|
6
口口口口 |①---|
口口①① |----|
口口口口 |----|
口口口口 |----|
7
口口口口 |①---|
口口口口 |----|
①①口口 |----|
口口口口 |----|
8
口口口口 |①---|
①①口口 |----|
口口口口 |----|
口口口口 |----|
9
口口口口 |①---|
口口口口 |----|
口口①① |----|
口口口口 |----|
10
口口口口 |----|
口口①口 |(168)①---|
口①口口 |----|
口口口口 |----|
11
口口口口 |----|
口口口口 |----|
口口口口
口口口口
12
口④口口 |①---|
口③口口 |②---|
口②口口 |③---|
口①口口 |④---|
13
口口①口 |①---|
口口②口 |②---|
口口③口 |③---|
口口④口 |④---|
14
口④口口 |①---|
口③口口 |②---|
口②口口 |③---|
口①口口 |④---|
15
口口①口 |①---|
口口②口 |②---|
口口③口 |③---|
口口④口 |④---|
16
口④口口 |①---|
③口口口 |②---|
口②口口 |③---|
①口口口 |④---|
17
口口口① |①---|
口口②口 |②---|
口口口③ |③---|
口口④口 |④---|
18
口④口口 |①---|
③口口口 |②---|
口②口口 |③---|
①口口口 |④---|
19
口口口① |①---|
口口②口 |②---|
口口口③ |③---|
口口④口 |④---|
20
口口口口 |①---|
口口口口 |----|
①①口口 |----|
口口口口 |----|
21
口口口口 |①---|
口口口口 |----|
口口①① |----|
口口口口 |----|
22
口口口口 |①---|
口口口口 |----|
口②②口 |②---|
口①①口 |----|
23
口口口口 |①---|
口①①口 |----|
口口口口 |----|
口口口口 |----|
24
口口口口 |①---|
②口口① |----|
口口口口 |②---|
口口口口 |----|
25
口口口口 |①---|
口口口口 |----|
②口口① |②---|
口口口口 |----|
26
口口口口 |①---|
②口口② |----|
口①①口 |②---|
口口口口 |----|
27
②口口② |①---|
口①①口 |----|
口口口口 |②---|
口口口口 |----|
28
口口口口 |①---|
口③口① |②---|
④口②口 |③---|
口口口口 |④---|
29
口口口口 |①---|
①口③口 |②---|
口②口④ |③---|
口口口口 |④---|
30
口口口口 |①---|
口口口口 |②---|
口④③口 |③---|
口②①口 |④---|
31
口③②口 |①---|
④口口① |②---|
口口口口 |③---|
口口口口 |④---|
32
口口口口 |①---|
口口口口 |----|
②②①① |②---|
口口口口 |----|
33
口口口口 |①---|
②②①① |----|
口口口口 |②---|
口口口口 |----|
34
口口口口 |①---|
②口口② |----|
口①①口 |②---|
口口口口 |----|
35
口口口口 |①---|
口口口口 |----|
口①①口 |----|
口口口口 |----|
36
口口口口 |①---|
口口②② |----|
①①口口 |②---|
口口口口 |----|
37
口口口口 |①---|
①①口口 |----|
口口②② |②---|
口口口口 |----|
38
口口口口 |①---|
②口口② |----|
口口口口 |②---|
口①①口 |----|
39
①口口① |①---|
口口口口 |----|
口②②口 |②---|
口口口口 |----|
40
①口口口 |①---|
①口口口 |----|
口②②口 |----|
口口口口 |②---|
41
口口口① |①---|
口口口① |----|
口②②口 |----|
口口口口 |②---|
42
①口口口 |①---|
②口口口 |②---|
③口口口 |③---|
④口口口 |④---|
43
口口口口 |①---|
口口口口 |----|
②①①② |②---|
口口口口 |----|
44
口口口① |①---|
口口口① |----|
口②②口 |----|
口口口口 |②---|
45
①口口口 |①---|
①口口口 |----|
口②②口 |----|
口口口口 |②---|
46
口口口① |①---|
口口口② |②---|
口口口③ |③---|
口口口④ |④---|
47
口口口口 |①---|
口口口口 |----|
②①①② |②---|
口口口口 |----|
48
口口口口 |①---|
①口口口 |----|
口②口口 |②---|
口口口口 |----|
49
口口口口 |①---|
①①口口 |----|
口口口口 |----|
口口口口 |----|
50
口口口口 |①---|
口口口① |----|
口口②口 |②---|
口口口口 |----|
51
口口口口 |①---|
口口①① |----|
口口口口 |----|
口口口口 |----|
52
口①口口 |①---|
口口②口 |----|
口口口口 |②---|
口口口口 |----|
53
口口口口 |①---|
口口口口 |----|
口①口口 |②---|
口口②口 |----|
54
口口口口 |①---|
口口口口 |----|
②①①② |②---|
口口口口 |----|
55
口口口口 |①---|
①①①① |----|
口口口口 |----|
口口口口 |----|
56
口口口口 |①---|
口口口口 |----|
①①①① |----|
口口口口 |----|
57
口口口口 |①---|
口③①口 |②---|
口②④口 |③---|
口口口口 |④---|
58
②口口② |①---|
①口口① |----|
口口口口 |②---|
口口口口 |----|
59
口口口口 |①---|
口①①口 |----|
口①①口 |----|
口口口口 |----|
60
口口口口 |①---|
①口②口 |②---|
口③口④ |③---|
口口口口 |④---|
61
口口口口 |①---|
口④②口 |②---|
口口口口 |③---|
口③①口 |④---|
62
①口口① |①---|
②口口② |②---|
③口口③ |③---|
④口口④ |④---|
63
口口口口 |①---|
口①①口 |----|
口①①口 |----|
口口口口 |----|
64
①口口① |①---|
口口口口 |----|
口②②口 |②---|
口口口口 |----|
65
①口口② |①---|
口①②口 |----|
口口口口 |②---|
口口口口 |----|
66
口口口口 |①---|
①口口② |----|
口①②口 |②---|
口口口口 |----|
67
①①①① |①---|
口口口口 |----|
口口口口 |----|
口口口口 |----|
68
口口口口 |①---|
③②①口 |②---|
口口口口 |③---|
口口口口 |----|
69
口口口口 |①---|
口口口口 |②---|
口①②③ |③---|
口口口口 |----|
70
口口口口 |①---|
口口口口 |②---|
口口口口 |③---|
③②①口 |----|
71
口口口口 |①---|
口②④口 |②---|
①口口③ |③---|
口口口口 |④---|
72
口口口口 |①---|
②口口④ |②---|
口①③口 |③---|
口口口口 |④---|
73
口①口口 |①---|
口①口口 |--②-|
口口口口 |----|
口②②口 |----|
74
口口①口 |①---|
③口①③ |--②-|
③口口③ |----|
口②②口 |③---|
75
口口口口 |----|
口口口口 |----|
口口口口 |----|
口口口口 |----|
76
口口口口 |①---|
口口口口 |----|
口口口口 |----|
①口口① |----|
77
口口口口 |①---|
①①②② |----|
口口口口 |②---|
口口口口 |----|
78
口②口口 |①---|
口口②口 |----|
口①口口 |②---|
口口①口 |----|
79
①口口① |①---|
口口口口 |----|
口口口口 |----|
口口口口 |----|
80
口口口口 |①---|
口口口口 |----|
口口口口 |----|
①口口① |----|
81
口口口口 |①---|
②②①① |----|
口口口口 |②---|
口口口口 |----|
82
口口口口 |①---|
③口口③ |②---|
口②①口 |③---|
口口口口 |----|
83
口口口口 |①---|
口口口口 |----|
口口口口 |----|
①①①① |----|

accuracy: 100%
最終更新:2022年05月25日 11:26